<?xml version="1.0" standalone="no"?>
<!DOCTYPE svg PUBLIC "-//W3C//DTD SVG 1.1//EN" "http://www.w3.org/Graphics/SVG/1.1/DTD/svg11.dtd" >
<svg xmlns="http://www.w3.org/2000/svg">
<metadata>Generated by IcoMoon</metadata>
<defs>
<font id="icomoon" horiz-adv-x="1024">
<font-face units-per-em="1024" ascent="960" descent="-64" />
<missing-glyph horiz-adv-x="1024" />
<glyph unicode="&#x20;" horiz-adv-x="512" d="" />
<glyph unicode="&#xe800;" glyph-name="alarm" d="M704 464h-144v208c0 26.512-21.488 48-48 48s-48-21.488-48-48v-256c0-26.512 21.488-48 48-48h192c26.512 0 48 21.488 48 48s-21.488 48-48 48zM310.592 886.8c-32.672 25.728-73.792 41.2-118.592 41.2-106.032 0-192-85.968-192-192 0-44.8 15.472-85.92 41.2-118.592 51.744 120.8 148.592 217.648 269.392 269.392zM836.016 928c-43.872 0-84.128-15.152-116.112-40.336 118.288-50.672 213.088-145.488 263.744-263.76 25.184 32 40.336 72.256 40.336 116.112 0.016 103.824-84.144 187.984-187.968 187.984zM512 880c-256.256 0-464-207.744-464-464 0-123.056 48.24-234.624 126.432-317.68l-64.368-64.368c-8.688-8.704-14.064-20.704-14.064-33.952 0-26.512 21.488-48 48-48 13.248 0 25.248 5.376 33.936 14.064l69.232 69.232c75.136-52.352 166.304-83.296 264.832-83.296 98.72 0 190.048 31.056 265.264 83.632l69.696-69.712c8.608-8.608 20.48-13.92 33.584-13.92 26.208 0 47.456 21.248 47.456 47.456 0 13.104-5.312 24.992-13.904 33.584l-64.896 64.896c78.432 83.056 126.8 194.8 126.8 318.064 0 256.256-207.744 464-464 464zM512 48c-203.248 0-368 164.752-368 368s164.752 368 368 368c203.232 0 368-164.752 368-368s-164.752-368-368-368z" />
<glyph unicode="&#xe801;" glyph-name="alt" d="M496 640h480c26.512 0 48 21.488 48 48s-21.488 48-48 48h-480c-26.512 0-48-21.488-48-48s21.488-48 48-48zM976 256h-453.584l-289.952 457.616c-8.512 13.424-23.408 22.384-40.464 22.384h-144c-26.512 0-48-21.488-48-48s21.488-48 48-48h117.584l289.968-457.616c8.496-13.424 23.392-22.384 40.448-22.384h480c26.512 0 48 21.488 48 48s-21.488 48-48 48z" />
<glyph unicode="&#xe802;" glyph-name="android" d="M250.352 200.112c0-34.624 27.344-62.816 60.992-62.816h44.032c-1.472-5.232-2.304-10.768-2.304-16.496v-125.568c0-32.832 25.888-59.488 57.792-59.488 31.92 0 57.808 26.656 57.808 59.488v125.568c0 5.728-0.848 11.264-2.304 16.496h107.328c-1.472-5.232-2.304-10.768-2.304-16.496v-125.568c0-32.832 25.888-59.488 57.792-59.488s57.808 26.656 57.808 59.488v125.568c0 5.728-0.848 11.264-2.32 16.496h44.032c33.664 0 60.992 28.176 60.992 62.816v436.16h-539.36v-436.16zM154.016 636.272c-31.92 0-57.792-26.624-57.792-59.472v-254.416c0-32.848 25.872-59.472 57.792-59.472 31.904 0 57.792 26.624 57.792 59.472v254.4c0 32.864-25.888 59.488-57.792 59.488zM886 636.272c-31.92 0-57.776-26.624-57.776-59.472v-254.416c0-32.848 25.856-59.472 57.776-59.472s57.776 26.624 57.776 59.472v254.4c0 32.864-25.856 59.488-57.776 59.488zM652.624 874.32l45.568 70.352c2.944 4.56 1.728 10.704-2.656 13.744-4.464 3.056-10.432 1.824-13.392-2.752l-25.728-39.76-10.848-16.72-10.976-16.944c-34.816 13.888-73.632 21.68-114.592 21.68-40.944 0-79.776-7.792-114.56-21.664l-21.776 33.664-25.792 39.76c-2.944 4.56-8.928 5.792-13.376 2.752-4.4-3.040-5.616-9.184-2.656-13.744l45.552-70.352c-81.744-39.184-137.056-113.424-137.056-198.4h539.328c0.016 84.96-55.296 159.2-137.040 198.384zM404.448 755.216c-15.968 0-28.896 13.328-28.896 29.744s12.928 29.712 28.896 29.712c15.952 0 28.896-13.296 28.896-29.712s-12.944-29.744-28.896-29.744zM635.6 755.216c-15.968 0-28.896 13.328-28.896 29.744s12.928 29.712 28.896 29.712 28.88-13.296 28.88-29.712-12.912-29.744-28.88-29.744z" />
<glyph unicode="&#xe803;" glyph-name="apple" d="M673.776 796.576c38.4 43.344 64.336 103.568 57.28 163.536-55.344-2.080-122.352-34.24-162.096-77.536-35.6-38.416-66.72-99.616-58.4-158.496 61.76-4.48 124.768 29.232 163.216 72.496zM812.336 415.872c-1.376 129.744 113.664 191.952 118.832 195.088-64.656 87.984-165.392 100.064-201.216 101.44-85.664 8.096-167.216-46.96-210.704-46.96-43.376 0-110.496 45.776-181.536 44.608-93.44-1.296-179.552-50.576-227.648-128.448-97.040-156.688-24.832-388.912 69.744-516.096 46.24-62.176 101.36-132.112 173.68-129.552 69.712 2.56 96.032 41.952 180.272 41.952 84.304 0 107.936-41.952 181.664-40.656 74.96 1.264 122.48 63.344 168.352 125.744 53.088 72.224 74.928 142.176 76.24 145.696-1.68 0.752-146.176 52.288-147.68 207.184z" />
<glyph unicode="&#xe804;" glyph-name="appstore" d="M496.48 511.168l-104.128-182.048h282.592c-20.528 40.624-47.696 98.768-84.192 182.016l-94.272 0.032zM507.76 617.216c6.48 11.328 2.56 25.888-8.736 32.48l-61.664 35.424c-11.264 6.56-25.84 2.608-32.304-8.72l-285.6-499.28c-6.544-11.344-2.56-25.888 8.736-32.368l61.648-35.584c11.28-6.528 25.84-2.576 32.368 8.72l285.552 499.328zM169.696 81.952l-61.648 35.504c-11.296 6.528-21.728 1.184-23.232-11.76l-10.656-93.184c-1.488-12.976 6.112-17.632 16.864-10.288l79.632 54.496c10.8 7.296 10.336 18.704-0.96 25.232zM261.152 511.168h-239.552c-11.84 0-21.424-9.616-21.424-21.488v-139.072c0-11.856 9.584-21.488 21.424-21.488h135.424l104.128 182.048zM1002.4 511.168h-208.112c24.48-46.064 47.168-89.424 63.168-120.080 11.072-21.2 19.824-37.968 22.928-43.568 3.248-5.968 5.552-12.112 7.104-18.4h114.928c11.84 0 21.44 9.632 21.44 21.488v139.072c-0.048 11.856-9.632 21.488-21.456 21.488zM842.832 326.8c-0.352 0.608-0.816 1.488-1.264 2.336-5.712 10.624-20.080 38.304-38.928 74.224-0.24 0.496-0.448 0.912-0.688 1.392-1.44 2.768-2.896 5.552-4.384 8.384-1.088 2.048-2.16 4.128-3.28 6.208-0.912 1.792-1.872 3.584-2.8 5.424-1.664 3.184-3.376 6.336-5.072 9.632-0.528 1.008-1.040 2.032-1.6 3.040-1.904 3.664-3.84 7.344-5.808 11.088-0.56 1.056-1.12 2.112-1.696 3.216-43.424 82.416-97.968 183.872-131.648 237.232-58.928 93.504-137.584 249.328-159.536 238.24-30.768-15.392 64.432-213.2 95.952-287.536 31.52-74.304 154.496-359.152 179.152-371.584 24.688-12.368 34.24-5.504 50.704 1.344 16.432 6.896 45.968 29.76 30.896 57.36zM904.064 98.128c-9.232-8.88-31.216-28.208-4.624-65.712 26.512-37.584 85.792-39.248 93.6-64.192-0.016 0 18.624 190.8-88.976 129.904zM913.12 180.016l-29.344 56.576c-6.656 12.8-22.288 18.016-34.752 11.632l-35.408-18.32c-12.448-6.48-16.384-21.664-8.72-33.872l37.136-58.912c7.664-12.128 23.856-16.128 35.872-8.848l25.28 15.248c12.096 7.28 16.56 23.696 9.936 36.496z" />
<glyph unicode="&#xe805;" glyph-name="arrow_1" d="M1009.952 273.952l-111.968 112.016c-8.688 8.688-20.688 14.064-33.936 14.064-26.512 0-47.984-21.488-47.984-48 0-13.264 5.376-25.264 14.064-33.952l30.064-30.064h-28.368v-0.080h-92.096l-497.84 498c-8.688 8.688-20.688 14.064-33.936 14.064h-159.968c-26.496 0-47.984-21.488-47.984-48.016 0-26.512 21.488-48 47.984-48h140.080l497.824-498.016c8.688-8.688 20.688-14.064 33.92-14.064h140.272l-29.968-29.984c-8.688-8.688-14.064-20.688-14.064-33.952 0-26.512 21.488-48 47.984-48 13.248 0 25.248 5.376 33.936 14.064l111.968 112.016c8.688 8.704 14.064 20.704 14.064 33.952 0 13.264-5.376 25.264-14.048 33.952z" />
<glyph unicode="&#xe806;" glyph-name="arrow_2" d="M1010.192 673.856l-112 112c-8.688 8.688-20.688 14.064-33.936 14.064-26.496 0-48-21.488-48-48 0-13.248 5.376-25.248 14.064-33.936l29.968-29.984h-140.288c-13.248 0-25.248-5.376-33.936-14.064l-497.952-497.936h-140.112c-26.512 0-48-21.488-48-48s21.488-48 48-48h160c13.248 0 25.248 5.376 33.936 14.064l497.952 497.936 120.48-0.080-30.064-30.064c-8.688-8.688-14.064-20.688-14.064-33.936 0-26.512 21.472-48 48-48 13.232 0 25.232 5.376 33.92 14.064l112 112c8.704 8.688 14.080 20.688 14.080 33.936s-5.36 25.248-14.048 33.936z" />
<glyph unicode="&#xe807;" glyph-name="arrow_down" d="M848 592c0 26.512-21.488 48-48 48-12.944 0-24.672-5.136-33.312-13.456l-0.016 0.016-254.784-254.784-251.488 251.488c-8.8 10.24-21.84 16.736-36.4 16.736-26.512 0-48-21.488-48-48 0-12.88 5.088-24.576 13.36-33.2l-0.128-0.128 288.016-287.984c8.736-9.056 20.976-14.688 34.544-14.688 0.032 0 0.064 0 0.112 0 0.032 0 0.064 0 0.112 0 13.584 0 25.792 5.632 34.544 14.688l0.016-0.016 287.984 288.016c8.32 8.624 13.44 20.368 13.44 33.312z" />
<glyph unicode="&#xe808;" glyph-name="arrow_left" d="M690.56 193.328l-254.784 254.768 251.488 251.488c10.24 8.816 16.736 21.856 16.736 36.416 0 26.512-21.488 48-48 48-12.912 0-24.576-5.088-33.2-13.36l-0.128 0.128-287.984-288.016c-9.056-8.736-14.688-20.976-14.688-34.544 0-0.032 0-0.064 0-0.112 0-0.032 0-0.064 0-0.112 0-13.584 5.632-25.808 14.688-34.544l-0.016-0.016 288.016-287.984c8.64-8.32 20.368-13.44 33.312-13.44 26.512 0 48 21.488 48 48 0 12.944-5.12 24.672-13.44 33.328v0z" />
<glyph unicode="&#xe809;" glyph-name="arrow_right" d="M704 448.096c0 0.032 0 0.080 0 0.112 0 13.568-5.632 25.808-14.688 34.544l0.016 0.016-288.128 287.872c-8.624 8.272-20.304 13.36-33.2 13.36-26.512 0-48-21.488-48-48 0-14.56 6.496-27.6 16.736-36.4l251.488-251.488-254.768-254.8c-8.32-8.64-13.456-20.368-13.456-33.312 0-26.512 21.488-48 48-48 12.944 0 24.672 5.12 33.312 13.456l0.016-0.016 287.984 288.016c9.056 8.736 14.688 20.976 14.688 34.544 0 0.032 0 0.064 0 0.096z" />
<glyph unicode="&#xe80a;" glyph-name="arrows" d="M1024 448c0 14.16-6.128 26.896-15.888 35.68v0l-160 144c-8.512 7.648-19.776 12.32-32.112 12.32-26.512 0-48-21.488-48-48 0-14.16 6.144-26.896 15.888-35.68v0l67.024-60.32h-290.912v290.912l60.32-67.024c8.768-9.744 21.52-15.888 35.68-15.888 26.512 0 48 21.488 48 48 0 12.352-4.672 23.6-12.32 32.112v0l-144 160c-8.768 9.744-21.52 15.888-35.68 15.888s-26.896-6.144-35.68-15.888v0l-144-160c-7.648-8.512-12.32-19.76-12.32-32.112 0-26.512 21.488-48 48-48 14.16 0 26.88 6.144 35.68 15.888v0l60.32 67.024v-290.912h-290.912l67.024 60.32c9.76 8.784 15.888 21.52 15.888 35.68 0 26.512-21.488 48-48 48-12.352 0-23.6-4.672-32.112-12.32v0l-160-144c-9.744-8.784-15.888-21.52-15.888-35.68s6.144-26.88 15.888-35.68v0l160-144c8.512-7.664 19.76-12.32 32.112-12.32 26.512 0 48 21.488 48 48 0 14.16-6.144 26.88-15.888 35.68v0l-67.024 60.32h290.912v-290.912l-60.32 67.008c-8.784 9.76-21.52 15.904-35.68 15.904-26.512 0-48-21.488-48-48 0-12.336 4.672-23.6 12.32-32.112v0l144-160c8.784-9.76 21.52-15.888 35.68-15.888s26.912 6.128 35.68 15.888v0l144 160c7.648 8.512 12.32 19.776 12.32 32.112 0 26.512-21.488 48-48 48-14.16 0-26.912-6.144-35.68-15.888v0l-60.32-67.024v290.912h290.912l-67.008-60.32c-9.76-8.8-15.904-21.52-15.904-35.68 0-26.512 21.488-48 48-48 12.336 0 23.6 4.672 32.112 12.32v0l160 144c9.76 8.768 15.888 21.52 15.888 35.68z" />
<glyph unicode="&#xe80b;" glyph-name="arrows_horizontal" d="M48 608h802.912l-67.008-60.32 0.096-0.144c-9.744-8.784-16-21.376-16-35.552 0-26.512 21.488-48 48-48 12.336 0 23.488 4.784 32 12.448l0.112-0.128 160 144-0.112 0.144c9.744 8.784 16 21.392 16 35.552s-6.256 26.768-16 35.552l0.112 0.128-160 144-0.112-0.128c-8.512 7.648-19.664 12.448-32 12.448-26.512 0-48-21.488-48-48 0-14.16 6.256-26.768 16-35.552l-0.112-0.128 67.024-60.32h-802.912c-26.512 0-48-21.488-48-48s21.488-48 48-48zM976 288h-802.912l67.024 60.32-0.112 0.112c9.76 8.8 16 21.392 16 35.568 0 26.512-21.488 48-48 48-12.352 0-23.488-4.8-32-12.432l-0.112 0.128-160-144 0.112-0.128c-9.744-8.816-16-21.408-16-35.568s6.256-26.752 16-35.568l-0.112-0.112 160-144 0.112 0.112c8.512-7.648 19.664-12.432 32-12.432 26.512 0 48 21.488 48 48 0 14.16-6.256 26.768-16 35.568l0.112 0.128-67.024 60.304h802.912c26.512 0 48 21.488 48 48s-21.488 48-48 48z" />
<glyph unicode="&#xe80c;" glyph-name="arrows_horizontal_2" d="M1024 448c0 14.16-6.144 26.896-15.888 35.68v0l-160 144c-8.512 7.648-19.776 12.32-32.112 12.32-26.512 0-48-21.488-48-48 0-14.16 6.128-26.896 15.888-35.68v0l67.024-60.32h-677.824l67.024 60.32c9.76 8.784 15.888 21.52 15.888 35.68 0 26.512-21.488 48-48 48-12.352 0-23.6-4.672-32.112-12.32v0l-160-144c-9.744-8.784-15.888-21.52-15.888-35.68s6.128-26.88 15.888-35.68v0l160-144c8.512-7.664 19.76-12.32 32.112-12.32 26.512 0 48 21.488 48 48 0 14.16-6.128 26.88-15.888 35.68v0l-67.024 60.32h677.824l-67.008-60.32c-9.76-8.8-15.904-21.52-15.904-35.68 0-26.512 21.488-48 48-48 12.336 0 23.6 4.672 32.112 12.32v0l160 144c9.76 8.768 15.888 21.52 15.888 35.68z" />
<glyph unicode="&#xe80d;" glyph-name="arrows_vertical" d="M912 144c0 26.512-21.488 48-48 48-14.16 0-26.768-6.256-35.568-16l-0.128 0.112-60.304-67.024v802.912c0 26.512-21.488 48-48 48s-48-21.488-48-48v-802.912l-60.32 67.008-0.112-0.096c-8.8 9.744-21.408 16-35.568 16-26.512 0-48-21.488-48-48 0-12.336 4.8-23.488 12.432-32l-0.128-0.112 144-160 0.128 0.112c8.8-9.744 21.408-16 35.568-16s26.752 6.256 35.568 16l0.128-0.112 144 160-0.128 0.112c7.648 8.512 12.432 19.664 12.432 32zM483.68 784.112l-144 160-0.128-0.112c-8.784 9.744-21.392 16-35.552 16s-26.768-6.256-35.552-16.016l-0.128 0.128-144-160 0.128-0.112c-7.648-8.512-12.448-19.648-12.448-32 0-26.512 21.488-48 48-48 14.16 0 26.768 6.256 35.552 16l0.128-0.112 60.32 67.024v-802.912c0-26.512 21.488-48 48-48s48 21.488 48 48v802.912l60.32-67.024 0.128 0.112c8.784-9.76 21.392-16 35.552-16 26.512 0 48 21.488 48 48 0 12.352-4.784 23.488-12.448 32l0.128 0.112z" />
<glyph unicode="&#xe80e;" glyph-name="arrows_vertical_2" d="M656 192c-14.16 0-26.912-6.144-35.68-15.888v0l-60.32-67.024v677.824l60.32-67.024c8.768-9.744 21.52-15.888 35.68-15.888 26.512 0 48 21.488 48 48 0 12.352-4.672 23.6-12.32 32.112v0l-144 160c-8.768 9.744-21.52 15.888-35.68 15.888s-26.896-6.144-35.68-15.888v0l-144-160c-7.648-8.512-12.32-19.76-12.32-32.112 0-26.512 21.488-48 48-48 14.16 0 26.896 6.144 35.68 15.888v0l60.32 67.024v-677.824l-60.32 67.008c-8.784 9.76-21.52 15.904-35.68 15.904-26.512 0-48-21.488-48-48 0-12.336 4.672-23.6 12.32-32.112v0l144-160c8.784-9.76 21.52-15.888 35.68-15.888s26.912 6.128 35.68 15.888v0l144 160c7.648 8.512 12.32 19.776 12.32 32.112 0 26.512-21.488 48-48 48z" />
<glyph unicode="&#xe80f;" glyph-name="arrow_up" d="M834.544 337.312v0l-288 288c-8.736 9.056-20.976 14.688-34.544 14.688-0.032 0-0.064 0-0.112 0s-0.064 0-0.112 0c-13.568 0-25.808-5.632-34.544-14.688l-0.016 0.016-287.872-288.128c-8.256-8.624-13.344-20.32-13.344-33.2 0-26.512 21.488-48 48-48 14.56 0 27.6 6.496 36.4 16.736l251.488 251.488 254.8-254.768c8.64-8.336 20.368-13.456 33.312-13.456 26.512 0 48 21.488 48 48 0 12.944-5.12 24.672-13.456 33.312z" />
<glyph unicode="&#xe810;" glyph-name="bar_chart_1" d="M464 160h96c26.512 0 48 21.488 48 48v400c0 26.512-21.488 48-48 48h-96c-26.512 0-48-21.488-48-48v-400c0-26.512 21.488-48 48-48zM736 160h96c26.512 0 48 21.488 48 48v624c0 26.512-21.488 48-48 48h-96c-26.512 0-48-21.488-48-48v-624c0-26.512 21.488-48 48-48zM192 160h96c26.512 0 48 21.488 48 48v176c0 26.512-21.488 48-48 48h-96c-26.512 0-48-21.488-48-48v-176c0-26.512 21.488-48 48-48zM984 112h-944c-22.096 0-40-17.92-40-40v-16c0-22.096 17.904-40 40-40h944c22.096 0 40 17.904 40 40v16c0 22.080-17.904 40-40 40z" />
<glyph unicode="&#xe811;" glyph-name="bar_chart_2" d="M984 112h-944c-22.096 0-40-17.92-40-40v-16c0-22.096 17.904-40 40-40h944c22.096 0 40 17.904 40 40v16c0 22.080-17.904 40-40 40zM736 160h96c26.512 0 48 21.488 48 48v432c0 26.512-21.488 48-48 48h-96c-26.512 0-48-21.488-48-48v-432c0-26.512 21.488-48 48-48zM464 160h96c26.512 0 48 21.488 48 48v624c0 26.512-21.488 48-48 48h-96c-26.512 0-48-21.488-48-48v-624c0-26.512 21.488-48 48-48zM192 160h96c26.512 0 48 21.488 48 48v192c0 26.496-21.488 48-48 48h-96c-26.512 0-48-21.504-48-48v-192c0-26.512 21.488-48 48-48z" />
<glyph unicode="&#xe812;" glyph-name="bar_chart_3" d="M464 160h96c26.512 0 48 21.488 48 48v400c0 26.512-21.488 48-48 48h-96c-26.512 0-48-21.488-48-48v-400c0-26.512 21.488-48 48-48zM736 160h96c26.512 0 48 21.488 48 48v176c0 26.512-21.488 48-48 48h-96c-26.512 0-48-21.488-48-48v-176c0-26.512 21.488-48 48-48zM984 112h-944c-22.096 0-40-17.92-40-40v-16c0-22.096 17.904-40 40-40h944c22.096 0 40 17.904 40 40v16c0 22.080-17.904 40-40 40zM192 160h96c26.512 0 48 21.488 48 48v624c0 26.512-21.488 48-48 48h-96c-26.512 0-48-21.488-48-48v-624c0-26.512 21.488-48 48-48z" />
<glyph unicode="&#xe813;" glyph-name="bar_graph" d="M768 160h96c26.512 0 48 21.488 48 48v336c0 26.512-21.488 48-48 48h-96c-26.512 0-48-21.488-48-48v-336c0-26.512 21.488-48 48-48zM496 160h96c26.512 0 48 21.488 48 48v528c0 26.512-21.488 48-48 48h-96c-26.512 0-48-21.488-48-48v-528c0-26.512 21.488-48 48-48zM976 112h-880v720c0 26.512-21.488 48-48 48s-48-21.488-48-48v-768c0-26.512 21.488-48 48-48h928c26.512 0 48 21.488 48 48 0 26.496-21.488 48-48 48zM224 160h96c26.512 0 48 21.488 48 48v96c0 26.512-21.488 48-48 48h-96c-26.512 0-48-21.488-48-48v-96c0-26.512 21.488-48 48-48z" />
<glyph unicode="&#xe814;" glyph-name="basket" d="M1024 512.208c0 0.096-0.016 0.192-0.016 0.304-0.016 1.184-0.080 2.368-0.176 3.536-0.064 0.672-0.128 1.344-0.224 2-0.064 0.64-0.176 1.28-0.272 1.92-3.52 21.472-21.232 38.176-43.248 40.032h-932.064c-26.512 0-48-21.488-48-48s21.488-48 48-48h42.528l102.912-411.664 0.144 0.032c5.2-20.832 23.936-36.368 46.416-36.368v0c0.080 0 0.16 0.016 0.256 0.016v-0.016h543.744c22.464 0 41.216 15.536 46.4 36.4l0.16-0.032 102.912 411.632h42.528c26.512 0 48 21.488 48 48 0 0.032 0 0.048 0 0.080 0 0.048 0 0.080 0 0.128zM368 160c0-26.512-21.488-48-48-48s-48 21.488-48 48v256c0 26.512 21.488 48 48 48s48-21.488 48-48v-256zM560 160c0-26.512-21.488-48-48-48s-48 21.488-48 48v256c0 26.512 21.488 48 48 48s48-21.488 48-48v-256zM752 160c0-26.512-21.488-48-48-48s-48 21.488-48 48v256c0 26.512 21.488 48 48 48s48-21.488 48-48v-256zM566.128 808.496l106.16-200.496h108.624l-129.936 245.408-0.176-0.096c-7.856 15.76-23.984 26.688-42.8 26.688-26.512 0-48-21.488-48-48 0-8.544 2.4-16.448 6.336-23.392l-0.208-0.112zM457.968 808.496l-0.272 0.144c3.888 6.944 6.304 14.832 6.304 23.36 0 26.512-21.488 48-48 48-18.8 0-34.896-10.912-42.784-26.64l-0.096 0.048-129.92-245.408h108.624l106.144 200.496z" />
<glyph unicode="&#xe815;" glyph-name="basket_add" d="M457.968 808.496l-0.272 0.144c3.888 6.944 6.304 14.832 6.304 23.36 0 26.512-21.488 48-48 48-18.8 0-34.896-10.912-42.784-26.64l-0.096 0.048-129.92-245.408h108.624l106.144 200.496zM566.128 808.496l53.264-100.624c21.008 25.184 46.752 46.24 75.872 61.856l-44.304 83.68-0.192-0.096c-7.824 15.76-23.952 26.688-42.768 26.688-26.512 0-48-21.488-48-48 0-8.544 2.4-16.448 6.336-23.392l-0.208-0.112zM816 752c-114.88 0-208-93.12-208-208s93.12-208 208-208 208 93.12 208 208c0 114.88-93.12 208-208 208zM912 496h-48v-48c0-26.512-21.488-48-48-48s-48 21.488-48 48v48h-48c-26.512 0-48 21.488-48 48s21.488 48 48 48h48v48c0 26.512 21.488 48 48 48s48-21.488 48-48v-48h48c26.512 0 48-21.488 48-48s-21.488-48-48-48zM752 296.368v-136.368c0-26.512-21.488-48-48-48s-48 21.488-48 48v184.336c-58.464 46.912-96 118.864-96 199.664 0 5.408 0.464 10.688 0.816 16h-512.816c-26.512 0-48-21.488-48-48s21.488-48 48-48h42.528l102.912-411.664 0.144 0.032c5.2-20.832 23.936-36.368 46.416-36.368v0c0.080 0 0.16 0.016 0.256 0.016v-0.016h543.744c22.464 0 41.216 15.536 46.4 36.4l0.16-0.032 61.808 247.248c-24.112-7.552-49.76-11.616-76.368-11.616-22.144 0-43.504 3.088-64 8.368zM368 160c0-26.512-21.488-48-48-48s-48 21.488-48 48v256c0 26.512 21.488 48 48 48s48-21.488 48-48v-256zM560 160c0-26.512-21.488-48-48-48s-48 21.488-48 48v256c0 26.512 21.488 48 48 48s48-21.488 48-48v-256z" />
<glyph unicode="&#xe816;" glyph-name="basket_delete" d="M457.968 808.496l-0.272 0.144c3.888 6.944 6.304 14.832 6.304 23.36 0 26.512-21.488 48-48 48-18.8 0-34.896-10.912-42.784-26.64l-0.096 0.048-129.92-245.408h108.624l106.144 200.496zM566.128 808.496l53.264-100.624c21.008 25.184 46.752 46.24 75.872 61.856l-44.304 83.68-0.192-0.096c-7.824 15.76-23.952 26.688-42.768 26.688-26.512 0-48-21.488-48-48 0-8.544 2.4-16.448 6.336-23.392l-0.208-0.112zM752 296.368v-136.368c0-26.512-21.488-48-48-48s-48 21.488-48 48v184.336c-58.464 46.912-96 118.864-96 199.664 0 5.408 0.464 10.688 0.8 16h-512.8c-26.512 0-48-21.488-48-48s21.488-48 48-48h42.528l102.912-411.664 0.144 0.032c5.2-20.832 23.936-36.368 46.416-36.368v0c0.080 0 0.16 0.016 0.256 0.016v-0.016h543.744c22.464 0 41.216 15.536 46.4 36.4l0.16-0.032 61.808 247.248c-24.112-7.552-49.76-11.616-76.368-11.616-22.144 0-43.504 3.088-64 8.368zM368 160c0-26.512-21.488-48-48-48s-48 21.488-48 48v256c0 26.512 21.488 48 48 48s48-21.488 48-48v-256zM560 160c0-26.512-21.488-48-48-48s-48 21.488-48 48v256c0 26.512 21.488 48 48 48s48-21.488 48-48v-256zM816 752c-114.88 0-208-93.12-208-208s93.12-208 208-208 208 93.12 208 208c0 114.88-93.12 208-208 208zM913.936 513.936c8.688-8.688 14.064-20.688 14.064-33.936 0-26.512-21.488-48-48-48-13.248 0-25.248 5.376-33.936 14.064l-30.064 30.048-30.064-30.064c-8.688-8.672-20.688-14.048-33.936-14.048-26.512 0-48 21.488-48 48 0 13.264 5.376 25.248 14.064 33.936l30.048 30.064-30.064 30.064c-8.672 8.688-14.048 20.688-14.048 33.936 0 26.512 21.488 48 48 48 13.248 0 25.248-5.376 33.936-14.064l30.064-30.048 30.064 30.064c8.688 8.672 20.688 14.048 33.936 14.048 26.512 0 48-21.488 48-48 0-13.248-5.376-25.248-14.064-33.936l-30.048-30.064 30.048-30.064z" />
<glyph unicode="&#xe817;" glyph-name="basket_ok" d="M566.128 808.496l53.264-100.624c21.008 25.184 46.752 46.24 75.872 61.856l-44.304 83.68-0.192-0.096c-7.824 15.76-23.952 26.688-42.768 26.688-26.512 0-48-21.488-48-48 0-8.544 2.4-16.448 6.336-23.392l-0.208-0.112zM457.968 808.496l-0.272 0.144c3.888 6.944 6.304 14.832 6.304 23.36 0 26.512-21.488 48-48 48-18.8 0-34.896-10.912-42.784-26.64l-0.096 0.048-129.92-245.408h108.624l106.144 200.496zM752 296.368v-136.368c0-26.512-21.488-48-48-48s-48 21.488-48 48v184.336c-58.464 46.912-96 118.864-96 199.664 0 5.408 0.464 10.688 0.8 16h-512.8c-26.512 0-48-21.488-48-48s21.488-48 48-48h42.528l102.912-411.664 0.144 0.032c5.2-20.832 23.936-36.368 46.416-36.368v0c0.080 0 0.16 0.016 0.256 0.016v-0.016h543.744c22.464 0 41.216 15.536 46.4 36.4l0.16-0.032 61.808 247.248c-24.112-7.552-49.76-11.616-76.368-11.616-22.144 0-43.504 3.088-64 8.368zM368 160c0-26.512-21.488-48-48-48s-48 21.488-48 48v256c0 26.512 21.488 48 48 48s48-21.488 48-48v-256zM560 160c0-26.512-21.488-48-48-48s-48 21.488-48 48v256c0 26.512 21.488 48 48 48s48-21.488 48-48v-256zM816 752c-114.88 0-208-93.12-208-208s93.12-208 208-208 208 93.12 208 208c0 114.88-93.12 208-208 208zM945.936 558.048l-128-128c-8.688-8.672-20.672-14.048-33.936-14.048-13.248 0-25.248 5.376-33.936 14.064l-64 64c-8.688 8.672-14.064 20.688-14.064 33.936 0 26.512 21.488 48 48 48 13.248 0 25.248-5.376 33.936-14.064l30.064-30.064 94.064 94.064c8.688 8.688 20.688 14.064 33.936 14.064 26.512 0 48-21.488 48-48 0-13.248-5.376-25.264-14.064-33.952z" />
<glyph unicode="&#xe818;" glyph-name="basket_remove" d="M457.968 808.496l-0.272 0.144c3.888 6.944 6.304 14.832 6.304 23.36 0 26.512-21.488 48-48 48-18.8 0-34.896-10.912-42.768-26.64l-0.112 0.048-129.92-245.408h108.624l106.144 200.496zM566.128 808.496l53.264-100.624c21.008 25.184 46.752 46.24 75.872 61.856l-44.304 83.68-0.192-0.096c-7.824 15.76-23.952 26.688-42.768 26.688-26.512 0-48-21.488-48-48 0-8.544 2.4-16.448 6.336-23.392l-0.208-0.112zM752 296.368v-136.368c0-26.512-21.488-48-48-48s-48 21.488-48 48v184.336c-58.464 46.912-96 118.864-96 199.664 0 5.408 0.464 10.688 0.8 16h-512.8c-26.512 0-48-21.488-48-48s21.488-48 48-48h42.528l102.912-411.664 0.144 0.032c5.2-20.832 23.936-36.368 46.416-36.368v0c0.080 0 0.16 0.016 0.256 0.016v-0.016h543.744c22.464 0 41.216 15.536 46.4 36.4l0.16-0.032 61.808 247.248c-24.112-7.552-49.76-11.616-76.368-11.616-22.144 0-43.504 3.088-64 8.368zM368 160c0-26.512-21.488-48-48-48s-48 21.488-48 48v256c0 26.512 21.488 48 48 48s48-21.488 48-48v-256zM560 160c0-26.512-21.488-48-48-48s-48 21.488-48 48v256c0 26.512 21.488 48 48 48s48-21.488 48-48v-256zM816 752c-114.88 0-208-93.12-208-208s93.12-208 208-208 208 93.12 208 208c0 114.88-93.12 208-208 208zM912 496h-192c-26.512 0-48 21.488-48 48s21.488 48 48 48h192c26.512 0 48-21.488 48-48s-21.488-48-48-48z" />
<glyph unicode="&#xe819;" glyph-name="battery_1_3" d="M352 544h-208v-192h208v192zM976 544v96c0 26.512-21.488 48-48 48h-880c-26.512 0-48-21.488-48-48v-384c0-26.512 21.488-48 48-48h880c26.512 0 48 21.488 48 48v96c26.512 0 48 21.488 48 48v96c0 26.512-21.488 48-48 48zM880 304h-784v288h784v-288z" />
<glyph unicode="&#xe81a;" glyph-name="battery_2_3" d="M592 544h-448v-192h448v192zM976 544v96c0 26.512-21.488 48-48 48h-880c-26.512 0-48-21.488-48-48v-384c0-26.512 21.488-48 48-48h880c26.512 0 48 21.488 48 48v96c26.512 0 48 21.488 48 48v96c0 26.512-21.488 48-48 48zM880 304h-784v288h784v-288z" />
<glyph unicode="&#xe81b;" glyph-name="battery_empty" d="M976 544v96c0 26.512-21.488 48-48 48h-880c-26.512 0-48-21.488-48-48v-384c0-26.512 21.488-48 48-48h880c26.512 0 48 21.488 48 48v96c26.512 0 48 21.488 48 48v96c0 26.512-21.488 48-48 48zM880 304h-784v288h784v-288z" />
<glyph unicode="&#xe81c;" glyph-name="battery_full" d="M976 544v96c0 26.512-21.488 48-48 48h-880c-26.512 0-48-21.488-48-48v-384c0-26.512 21.488-48 48-48h880c26.512 0 48 21.488 48 48v96c26.512 0 48 21.488 48 48v96c0 26.512-21.488 48-48 48zM880 304h-784v288h784v-288zM832 544h-688v-192h688v192z" />
<glyph unicode="&#xe81d;" glyph-name="behance" d="M415.824 471.968c55.28 26.88 86.432 70.672 86.432 133.408 0 119.008-81.92 162.4-202.976 162.4h-299.264v-643.072h308.080c114.864 0 224.432 55.552 224.432 185.344 0.016 79.616-39.152 139.536-116.704 161.92zM127.856 659.616h130.88c49.84 0 96.16-12.576 96.16-73.456 0-53.632-36.528-75.984-85.488-75.984h-141.552v149.44zM277.408 239.008h-149.552v175.424h152.208c59.68 0 100.608-26 100.608-91.312 0-66.272-48.048-84.112-103.264-84.112zM927.568 704.112h-255.136v-65.152h255.088v65.152h0.048zM800.8 599.968c-139.76 0-235.072-105.616-235.072-244.368 0-143.152 89.936-243.376 235.072-243.376 104.24 0 169.92 31.44 205.488 140.624h-101.248c-8.032-28.688-49.024-44.896-99.808-44.896-70.32 0-109.504 29.664-113.024 110.272h332.096c8.88 142.272-66.816 281.744-223.504 281.744zM692.192 412.832c1.744 35.744 24.912 91.344 105.008 91.344 61.424 0 89.072-26.944 100.688-91.344h-205.696z" />
<glyph unicode="&#xe81e;" glyph-name="bell" d="M832 240c-26.512 0-48 21.488-48 48v320c0 123.712-100.288 224-224 224 0 26.512-21.488 48-48 48s-48-21.488-48-48c-123.712 0-224-100.288-224-224v-320c0-26.512-21.488-48-48-48s-48-21.488-48-48 21.488-48 48-48h640c26.512 0 48 21.488 48 48s-21.488 48-48 48zM512 0c53.024 0 96 42.976 96 96h-192c0-53.024 42.976-96 96-96z" />
<glyph unicode="&#xe81f;" glyph-name="bin" d="M848 816h-240v48c0 26.512-21.488 48-48 48h-96c-26.512 0-48-21.488-48-48v-48h-240c-26.512 0-48-21.488-48-48v-48h768v48c0 26.512-21.488 48-48 48zM176 32c0-26.512 21.488-48 48-48h576c26.512 0 48 21.488 48 48v640h-672v-640zM656 528c0 26.512 21.488 48 48 48s48-21.488 48-48v-400c0-26.512-21.488-48-48-48s-48 21.488-48 48v400zM464 528c0 26.512 21.488 48 48 48s48-21.488 48-48v-400c0-26.512-21.488-48-48-48s-48 21.488-48 48v400zM272 528c0 26.512 21.488 48 48 48s48-21.488 48-48v-400c0-26.512-21.488-48-48-48s-48 21.488-48 48v400z" />
<glyph unicode="&#xe820;" glyph-name="block" d="M512 960c-282.768 0-512-229.232-512-512s229.232-512 512-512 512 229.232 512 512-229.232 512-512 512zM512 32c-229.744 0-416 186.256-416 416 0 97.568 33.84 187.104 90.080 258.048l583.968-583.968c-70.96-56.256-160.48-90.080-258.048-90.080zM837.92 189.952l-583.952 583.968c70.944 56.24 160.464 90.080 258.032 90.080 229.744 0 416-186.256 416-416 0-97.568-33.808-187.088-90.080-258.048z" />
<glyph unicode="&#xe821;" glyph-name="bluetooth" d="M595.888 448l190.064 190.064c8.672 8.688 14.048 20.672 14.048 33.936s-5.376 25.248-14.064 33.936l-240 240c-8.688 8.688-20.688 14.064-33.936 14.064-26.512 0-48-21.488-48-48v-332.128l-158.064 158.064c-8.672 8.688-20.688 14.064-33.936 14.064-26.512 0-48-21.488-48-48 0-13.264 5.376-25.248 14.064-33.936l222.064-222.064-222.064-222.064c-8.688-8.688-14.064-20.688-14.064-33.936 0-26.512 21.488-48 48-48 13.248 0 25.248 5.376 33.936 14.064l158.064 158.048v-332.112c0-26.512 21.488-48 48-48 13.248 0 25.248 5.376 33.936 14.064l240 240c8.688 8.672 14.064 20.672 14.064 33.936 0 13.248-5.376 25.248-14.064 33.936l-190.048 190.064zM560 796.112l124.112-124.112-124.112-124.112v248.224zM560 99.888v248.224l124.112-124.112-124.112-124.112z" />
<glyph unicode="&#xe822;" glyph-name="book" d="M160 672h128c26.512 0 48 21.488 48 48s-21.488 48-48 48h-128c-26.512 0-48-21.488-48-48s21.488-48 48-48zM160 400h128c26.512 0 48 21.488 48 48s-21.488 48-48 48h-128c-26.512 0-48-21.488-48-48s21.488-48 48-48zM864 912h-48v-928h48c26.512 0 48 21.488 48 48v832c0 26.512-21.488 48-48 48zM208 864v-48h80c53.024 0 96-42.976 96-96s-42.976-96-96-96h-80v-80h80c53.024 0 96-42.976 96-96s-42.976-96-96-96h-80v-80h80c53.024 0 96-42.976 96-96s-42.976-96-96-96h-80v-48c0-26.512 21.488-48 48-48h512v928h-512c-26.512 0-48-21.488-48-48zM336 176c0 26.512-21.488 48-48 48h-128c-26.512 0-48-21.488-48-48s21.488-48 48-48h128c26.512 0 48 21.488 48 48z" />
<glyph unicode="&#xe823;" glyph-name="book_1" d="M976 960c-6.496 0-12.704-1.312-18.336-3.648v0l-0.096-0.032c-0.144-0.064-0.288-0.112-0.432-0.176l-445.136-184.192-445.136 184.192c-0.144 0.064-0.288 0.112-0.432 0.176l-0.080 0.032c-5.648 2.336-11.856 3.648-18.352 3.648-26.512 0-48-21.488-48-48v-736c0-20.112 12.384-37.328 29.936-44.464l463.072-191.632c5.824-2.512 12.24-3.904 18.992-3.904s13.168 1.392 19.008 3.92l463.056 191.616c17.568 7.136 29.936 24.352 29.936 44.464v736c0 26.512-21.488 48-48 48zM464 55.808l-368 152.272v632.112l368-152.272v-632.112zM928 208.080l-368-152.272v632.112l368 152.272v-632.112z" />
<glyph unicode="&#xe824;" glyph-name="book_2" d="M172.144 436.32v0l176-80c6.048-2.752 12.768-4.32 19.856-4.32 26.512 0 48 21.488 48 48 0 19.424-11.536 36.144-28.144 43.696v0l-176 80c-6.048 2.752-12.768 4.304-19.856 4.304-26.512 0-48-21.488-48-48 0-19.424 11.536-36.144 28.144-43.68zM172.144 260.32v0l176-80c6.048-2.752 12.768-4.32 19.856-4.32 26.512 0 48 21.488 48 48 0 19.424-11.536 36.144-28.144 43.68v0l-176 80c-6.048 2.752-12.768 4.32-19.856 4.32-26.512 0-48-21.488-48-48 0-19.424 11.536-36.144 28.144-43.68zM172.144 612.304v0l176-80c6.048-2.752 12.768-4.304 19.856-4.304 26.512 0 48 21.488 48 48 0 19.424-11.536 36.144-28.144 43.696v0l-176 80c-6.048 2.752-12.768 4.304-19.856 4.304-26.512 0-48-21.488-48-48 0-19.424 11.536-36.144 28.144-43.696zM656 176c7.088 0 13.808 1.568 19.856 4.32v0l176 80c16.608 7.536 28.144 24.256 28.144 43.68 0 26.512-21.488 48-48 48-7.088 0-13.808-1.568-19.856-4.32v0l-176-80c-16.608-7.536-28.144-24.256-28.144-43.68 0-26.512 21.488-48 48-48zM976 960c-6.496 0-12.704-1.312-18.336-3.648v0l-0.096-0.032c-0.144-0.064-0.288-0.112-0.432-0.176l-445.136-184.192-445.136 184.192c-0.144 0.064-0.288 0.112-0.432 0.176l-0.080 0.032c-5.648 2.336-11.856 3.648-18.352 3.648-26.512 0-48-21.488-48-48v-736c0-20.112 12.384-37.328 29.936-44.464l463.072-191.632c5.824-2.512 12.24-3.904 18.992-3.904s13.168 1.392 19.008 3.92l463.056 191.616c17.568 7.136 29.936 24.352 29.936 44.464v736c0 26.512-21.488 48-48 48zM464 55.808l-368 152.272v632.112l368-152.272v-632.112zM928 208.080l-368-152.272v632.112l368 152.272v-632.112zM656 352c7.088 0 13.808 1.568 19.856 4.32v0l176 80c16.608 7.536 28.144 24.256 28.144 43.68 0 26.512-21.488 48-48 48-7.088 0-13.808-1.552-19.856-4.304v0l-176-80c-16.608-7.552-28.144-24.272-28.144-43.696 0-26.512 21.488-48 48-48zM656 528c7.088 0 13.808 1.552 19.856 4.304v0l176 80c16.608 7.552 28.144 24.272 28.144 43.696 0 26.512-21.488 48-48 48-7.088 0-13.808-1.552-19.856-4.304v0l-176-80c-16.608-7.552-28.144-24.272-28.144-43.696 0-26.512 21.488-48 48-48z" />
<glyph unicode="&#xe825;" glyph-name="bookmark" d="M656 880h-288c-26.512 0-48-21.488-48-48v-816l192 192 192-192v816c0 26.512-21.488 48-48 48z" />
<glyph unicode="&#xe826;" glyph-name="brightness_high" d="M238.064 654.064l0.144 0.144c8.624-8.752 20.512-14.208 33.792-14.208 26.512 0 48 21.488 48 48 0 13.28-5.456 25.168-14.192 33.808l0.144 0.144-112.016 112.016c-8.688 8.656-20.688 14.032-33.936 14.032-26.512 0-48-21.488-48-48 0-13.248 5.376-25.248 14.064-33.936l112-112zM752 640c13.28 0 25.168 5.472 33.808 14.208l0.144-0.144 111.984 112c8.688 8.688 14.064 20.688 14.064 33.936 0 26.512-21.488 48-48 48-13.248 0-25.248-5.376-33.936-14.064l-112-112.016 0.16-0.144c-8.752-8.608-14.224-20.496-14.224-33.776 0-26.512 21.488-48 48-48zM512 736c26.512 0 48 21.488 48 48v128c0 26.512-21.488 48-48 48s-48-21.488-48-48v-128c0-26.512 21.488-48 48-48zM224 448c0 26.512-21.488 48-48 48h-128c-26.512 0-48-21.488-48-48s21.488-48 48-48h128c26.512 0 48 21.488 48 48zM810.832 217.056l-24.88 24.896c-8.704 8.672-20.704 14.048-33.952 14.048-26.512 0-48-21.488-48-48 0-13.248 5.376-25.248 14.064-33.936l112-112c8.688-8.688 20.688-14.064 33.936-14.064 26.512 0 48 21.488 48 48 0 13.248-5.376 25.248-14.064 33.936l-87.104 87.12zM272 256c-13.248 0-25.248-5.376-33.936-14.064l-112-112c-8.688-8.688-14.064-20.688-14.064-33.936 0-26.512 21.488-48 48-48 13.248 0 25.248 5.376 33.936 14.064l112.016 112c8.672 8.672 14.048 20.688 14.048 33.936 0 26.512-21.488 48-48 48zM976 496h-128c-26.512 0-48-21.488-48-48s21.488-48 48-48h128c26.512 0 48 21.488 48 48s-21.488 48-48 48zM512 640c-106.032 0-192-85.968-192-192 0-16.336 2.256-32.112 6.096-47.248l18.928-47.328c33.008-58.128 95.36-97.424 166.976-97.424 106.032 0 192 85.952 192 192 0 106.032-85.968 192-192 192zM512 352c-53.024 0-96 42.976-96 96s42.976 96 96 96c53.024 0 96-42.976 96-96s-42.976-96-96-96zM512 160c-26.512 0-48-21.488-48-48v-128c0-26.512 21.488-48 48-48s48 21.488 48 48v128c0 26.512-21.488 48-48 48z" />
<glyph unicode="&#xe827;" glyph-name="brightness_low" d="M206.064 686.048l32-32 0.144 0.144c8.624-8.736 20.512-14.192 33.792-14.192 26.512 0 48 21.488 48 48 0 13.28-5.456 25.168-14.208 33.808l0.144 0.144-32 32-0.144-0.144c-8.624 8.736-20.512 14.192-33.792 14.192-26.512 0-48-21.488-48-48 0-13.28 5.456-25.168 14.208-33.792l-0.144-0.16zM752 640c13.28 0 25.168 5.472 33.808 14.208l0.144-0.144 32 32-0.144 0.144c8.736 8.624 14.192 20.512 14.192 33.792 0 26.512-21.488 48-48 48-13.28 0-25.168-5.456-33.808-14.208l-0.144 0.144-32-32 0.144-0.144c-8.72-8.624-14.192-20.512-14.192-33.792 0-26.512 21.488-48 48-48zM224 448c0 26.512-21.488 48-48 48h-32c-26.512 0-48-21.488-48-48s21.488-48 48-48h32c26.512 0 48 21.488 48 48zM512 736c26.512 0 48 21.488 48 48v32c0 26.512-21.488 48-48 48s-48-21.488-48-48v-32c0-26.512 21.488-48 48-48zM512 640c-106.032 0-192-85.968-192-192 0-16.336 2.256-32.112 6.096-47.248l18.928-47.328c33.008-58.128 95.36-97.424 166.976-97.424 106.032 0 192 85.952 192 192 0 106.032-85.968 192-192 192zM512 352c-53.024 0-96 42.976-96 96s42.976 96 96 96c53.024 0 96-42.976 96-96s-42.976-96-96-96zM785.936 241.936c-8.688 8.688-20.688 14.064-33.936 14.064-26.512 0-48-21.488-48-48 0-13.248 5.376-25.248 14.064-33.936l32-32c8.688-8.688 20.688-14.064 33.936-14.064 26.512 0 48 21.488 48 48 0 13.248-5.376 25.248-14.064 33.936l-32 32zM272 256c-13.248 0-25.248-5.376-33.936-14.064l-32-32c-8.688-8.688-14.064-20.688-14.064-33.936 0-26.512 21.488-48 48-48 13.248 0 25.264 5.376 33.936 14.064l32 32c8.688 8.672 14.064 20.688 14.064 33.936 0 26.512-21.488 48-48 48zM880 496h-32c-26.512 0-48-21.488-48-48s21.488-48 48-48h32c26.512 0 48 21.488 48 48s-21.488 48-48 48zM512 160c-26.512 0-48-21.488-48-48v-32c0-26.512 21.488-48 48-48s48 21.488 48 48v32c0 26.512-21.488 48-48 48z" />
<glyph unicode="&#xe828;" glyph-name="browser" d="M976 896h-928c-26.512 0-48-21.488-48-48v-800c0-26.512 21.488-48 48-48h928c26.512 0 48 21.488 48 48v800c0 26.512-21.488 48-48 48zM384 848c26.512 0 48-21.488 48-48s-21.488-48-48-48-48 21.488-48 48 21.488 48 48 48zM240 848c26.512 0 48-21.488 48-48s-21.488-48-48-48-48 21.488-48 48 21.488 48 48 48zM96 848c26.512 0 48-21.488 48-48s-21.488-48-48-48-48 21.488-48 48 21.488 48 48 48zM976 48h-928v656h928v-656z" />
<glyph unicode="&#xe829;" glyph-name="browser_add" d="M976 896h-928c-26.512 0-48-21.488-48-48v-800c0-26.512 21.488-48 48-48h928c26.512 0 48 21.488 48 48v800c0 26.512-21.488 48-48 48zM384 848c26.512 0 48-21.488 48-48s-21.488-48-48-48-48 21.488-48 48 21.488 48 48 48zM240 848c26.512 0 48-21.488 48-48s-21.488-48-48-48-48 21.488-48 48 21.488 48 48 48zM96 848c26.512 0 48-21.488 48-48s-21.488-48-48-48-48 21.488-48 48 21.488 48 48 48zM976 48h-928v656h928v-656zM352 320h112v-112c0-26.512 21.488-48 48-48s48 21.488 48 48v112h112c26.512 0 48 21.488 48 48s-21.488 48-48 48h-112v112c0 26.512-21.488 48-48 48s-48-21.488-48-48v-112h-112c-26.512 0-48-21.488-48-48s21.488-48 48-48z" />
<glyph unicode="&#xe82a;" glyph-name="browser_delete" d="M976 896h-928c-26.512 0-48-21.488-48-48v-800c0-26.512 21.488-48 48-48h928c26.512 0 48 21.488 48 48v800c0 26.512-21.488 48-48 48zM384 848c26.512 0 48-21.488 48-48s-21.488-48-48-48-48 21.488-48 48 21.488 48 48 48zM240 848c26.512 0 48-21.488 48-48s-21.488-48-48-48-48 21.488-48 48 21.488 48 48 48zM96 848c26.512 0 48-21.488 48-48s-21.488-48-48-48-48 21.488-48 48 21.488 48 48 48zM976 48h-928v656h928v-656zM444.128 368l-79.2-79.2c-18.752-18.752-18.752-49.136 0-67.888s49.136-18.752 67.888 0l79.2 79.2 79.2-79.2c18.752-18.752 49.12-18.752 67.872 0 18.768 18.752 18.752 49.136 0 67.888l-79.2 79.2 79.2 79.2c18.752 18.752 18.752 49.136 0 67.888s-49.136 18.752-67.888 0l-79.2-79.216-79.2 79.2c-18.736 18.736-49.136 18.752-67.888 0-18.736-18.752-18.736-49.136 0-67.888l79.216-79.184z" />
<glyph unicode="&#xe82b;" glyph-name="browser_layout_1" d="M976 896h-928c-26.512 0-48-21.488-48-48v-800c0-26.512 21.488-48 48-48h928c26.512 0 48 21.488 48 48v800c0 26.512-21.488 48-48 48zM384 848c26.512 0 48-21.488 48-48s-21.488-48-48-48-48 21.488-48 48 21.488 48 48 48zM240 848c26.512 0 48-21.488 48-48s-21.488-48-48-48-48 21.488-48 48 21.488 48 48 48zM96 848c26.512 0 48-21.488 48-48s-21.488-48-48-48-48 21.488-48 48 21.488 48 48 48zM240 48h-192v416h192v-416zM976 48h-688v416h688v-416zM976 512h-928v192h928v-192z" />
<glyph unicode="&#xe82c;" glyph-name="browser_layout_2" d="M976 896h-928c-26.512 0-48-21.488-48-48v-800c0-26.512 21.488-48 48-48h928c26.512 0 48 21.488 48 48v800c0 26.512-21.488 48-48 48zM384 848c26.512 0 48-21.488 48-48s-21.488-48-48-48-48 21.488-48 48 21.488 48 48 48zM240 848c26.512 0 48-21.488 48-48s-21.488-48-48-48-48 21.488-48 48 21.488 48 48 48zM96 848c26.512 0 48-21.488 48-48s-21.488-48-48-48-48 21.488-48 48 21.488 48 48 48zM736 48h-688v416h688v-416zM976 48h-192v416h192v-416zM976 512h-928v192h928v-192z" />
<glyph unicode="&#xe82d;" glyph-name="browser_layout_3" d="M976 896h-928c-26.512 0-48-21.488-48-48v-800c0-26.512 21.488-48 48-48h928c26.512 0 48 21.488 48 48v800c0 26.512-21.488 48-48 48zM384 848c26.512 0 48-21.488 48-48s-21.488-48-48-48-48 21.488-48 48 21.488 48 48 48zM240 848c26.512 0 48-21.488 48-48s-21.488-48-48-48-48 21.488-48 48 21.488 48 48 48zM96 848c26.512 0 48-21.488 48-48s-21.488-48-48-48-48 21.488-48 48 21.488 48 48 48zM240 48h-192v416h192v-416zM736 48h-448v416h448v-416zM976 48h-192v416h192v-416zM976 512h-928v192h928v-192z" />
<glyph unicode="&#xe82e;" glyph-name="browser_ok" d="M430.064 238.064c8.688-8.688 20.688-14.064 33.936-14.064s25.248 5.376 33.936 14.064l192 192c8.688 8.672 14.064 20.688 14.064 33.936 0 26.512-21.488 48-48 48-13.248 0-25.248-5.376-33.936-14.064l-158.064-158.048-62.064 62.048c-8.672 8.688-20.688 14.064-33.936 14.064-26.512 0-48-21.488-48-48 0-13.248 5.376-25.248 14.064-33.936l96-96zM976 896h-928c-26.512 0-48-21.488-48-48v-800c0-26.512 21.488-48 48-48h928c26.512 0 48 21.488 48 48v800c0 26.512-21.488 48-48 48zM384 848c26.512 0 48-21.488 48-48s-21.488-48-48-48-48 21.488-48 48 21.488 48 48 48zM240 848c26.512 0 48-21.488 48-48s-21.488-48-48-48-48 21.488-48 48 21.488 48 48 48zM96 848c26.512 0 48-21.488 48-48s-21.488-48-48-48-48 21.488-48 48 21.488 48 48 48zM976 48h-928v656h928v-656z" />
<glyph unicode="&#xe82f;" glyph-name="browser_remove" d="M352 320h320c26.512 0 48 21.488 48 48s-21.488 48-48 48h-320c-26.512 0-48-21.488-48-48s21.488-48 48-48zM976 896h-928c-26.512 0-48-21.488-48-48v-800c0-26.512 21.488-48 48-48h928c26.512 0 48 21.488 48 48v800c0 26.512-21.488 48-48 48zM384 848c26.512 0 48-21.488 48-48s-21.488-48-48-48-48 21.488-48 48 21.488 48 48 48zM240 848c26.512 0 48-21.488 48-48s-21.488-48-48-48-48 21.488-48 48 21.488 48 48 48zM96 848c26.512 0 48-21.488 48-48s-21.488-48-48-48-48 21.488-48 48 21.488 48 48 48zM976 48h-928v656h928v-656z" />
<glyph unicode="&#xe830;" glyph-name="bullseye" d="M512 544c-53.024 0-96-42.976-96-96s42.976-96 96-96c53.024 0 96 42.976 96 96 0 53.008-42.976 96-96 96zM512 752c-167.888 0-304-136.096-304-304 0-167.888 136.112-304 304-304s304 136.112 304 304c0 167.888-136.112 304-304 304zM512 240c-114.88 0-208 93.136-208 208 0 114.88 93.12 208 208 208s208-93.12 208-208c0-114.88-93.12-208-208-208zM512 960c-282.768 0-512-229.232-512-512s229.232-512 512-512c282.768 0 512 229.232 512 512s-229.232 512-512 512zM512 32c-229.744 0-416 186.24-416 416 0 229.744 186.256 416 416 416s416-186.24 416-416c0-229.76-186.24-416-416-416z" />
<glyph unicode="&#xe831;" glyph-name="calendar" d="M768 736c26.512 0 48 21.488 48 48v128c0 26.512-21.488 48-48 48s-48-21.488-48-48v-128c0-26.512 21.488-48 48-48zM976 832h-96v-48c0-61.856-50.144-112-112-112s-112 50.144-112 112v48h-288v-48c0-61.856-50.144-112-112-112s-112 50.144-112 112v48h-96c-26.512 0-48-21.488-48-48v-800c0-26.512 21.488-48 48-48h928c26.512 0 48 21.488 48 48v800c0 26.512-21.488 48-48 48zM928 32h-832v544h832v-544zM256 736c26.512 0 48 21.488 48 48v128c0 26.512-21.488 48-48 48s-48-21.488-48-48v-128c0-26.512 21.488-48 48-48zM421.776 325.888c-5.968-5.552-12.56-10.608-19.76-15.184-7.216-4.576-14-9.072-20.384-13.52-12.48-8.608-24.336-17.056-35.568-25.376-11.232-8.336-21.008-17.408-29.328-27.248s-14.912-20.992-19.76-33.504c-4.864-12.464-7.28-27.168-7.28-44.096h213.824v50.752h-137.696c7.216 10 15.52 18.72 24.96 26.224 9.424 7.488 19.136 14.464 29.12 20.992 9.984 6.512 19.904 13.104 29.744 19.76s18.656 14.080 26.416 22.272c7.76 8.16 14 17.536 18.72 28.064 4.704 10.56 7.072 23.152 7.072 37.872 0 14.128-2.704 26.88-8.112 38.272-5.408 11.36-12.688 20.928-21.84 28.704-9.152 7.76-19.76 13.728-31.824 17.888s-24.752 6.24-38.064 6.24c-17.472 0-32.928-2.992-46.384-8.944-13.456-5.968-24.624-14.288-33.488-24.96-8.88-10.672-15.536-23.152-19.968-37.44s-6.384-29.744-5.824-46.368h56.576c0 7.744 0.768 15.6 2.288 23.504s4.080 15.12 7.696 21.632c3.6 6.512 8.384 11.792 14.352 15.808s13.248 6.032 21.84 6.032c12.752 0 23.232-3.952 31.408-11.856s12.272-18.928 12.272-33.072c0-8.88-2.016-16.784-6.032-23.696-4.032-6.96-9.024-13.2-14.976-18.752zM663.472 227.088c-4.304-5.136-9.568-9.312-15.808-12.48-6.24-3.184-13.248-4.784-20.992-4.784-13.312 0-24.288 3.952-32.88 11.856-8.576 7.904-13.6 18.496-14.976 31.808h-59.072c0.272-15.248 3.376-28.624 9.344-40.144 5.968-11.504 13.936-21.136 23.936-28.928 9.968-7.744 21.408-13.504 34.32-17.248s26.4-5.632 40.56-5.632c14.704-0.272 28.56 2.16 41.6 7.28 13.040 5.136 24.464 12.416 34.32 21.84s17.68 20.592 23.52 33.504c5.824 12.88 8.736 26.816 8.736 41.792 0 13.584-2.016 26.416-6.032 38.48-4.032 12.064-9.84 22.528-17.472 31.408s-16.992 15.952-28.096 21.216c-11.072 5.248-23.84 7.904-38.256 7.904-11.664 0-22.064-1.744-31.216-5.216-9.136-3.472-17.728-9.2-25.776-17.248l-0.848 0.832 11.664 66.144h120.224v48.672h-162.672l-28.688-160.992h53.232c5.824 8.048 12.080 13.936 18.736 17.68 6.656 3.728 15.232 5.6 25.776 5.6 8.048 0 15.12-1.376 21.216-4.16 6.096-2.752 11.376-6.656 15.808-11.648 4.416-4.992 7.744-10.816 9.968-17.472 2.24-6.656 3.344-13.728 3.344-21.216 0-7.216-1.184-14.24-3.552-21.008-2.352-6.752-5.696-12.704-9.968-17.84z" />
<glyph unicode="&#xe832;" glyph-name="calendar_add" d="M256 736c26.512 0 48 21.488 48 48v128c0 26.512-21.488 48-48 48s-48-21.488-48-48v-128c0-26.512 21.488-48 48-48zM402.016 464c-0.016 0-0.032 0-0.048 0h0.112c-0.032 0-0.048 0-0.064 0zM768 736c26.512 0 48 21.488 48 48v128c0 26.512-21.488 48-48 48s-48-21.488-48-48v-128c0-26.512 21.488-48 48-48zM400 256h64v-64c0-26.512 21.488-48 48-48s48 21.488 48 48v64h64c26.512 0 48 21.488 48 48s-21.488 48-48 48h-64v64c0 26.512-21.488 48-48 48s-48-21.488-48-48v-64h-64c-26.512 0-48-21.488-48-48s21.488-48 48-48zM976 832h-96v-48c0-61.856-50.144-112-112-112s-112 50.144-112 112v48h-288v-48c0-61.856-50.144-112-112-112s-112 50.144-112 112v48h-96c-26.512 0-48-21.488-48-48v-800c0-26.512 21.488-48 48-48h928c26.512 0 48 21.488 48 48v800c0 26.512-21.488 48-48 48zM928 32h-832v544h832v-544z" />
<glyph unicode="&#xe833;" glyph-name="calendar_ok" d="M768 736c26.512 0 48 21.488 48 48v128c0 26.512-21.488 48-48 48s-48-21.488-48-48v-128c0-26.512 21.488-48 48-48zM976 832h-96v-48c0-61.856-50.144-112-112-112s-112 50.144-112 112v48h-288v-48c0-61.856-50.144-112-112-112s-112 50.144-112 112v48h-96c-26.512 0-48-21.488-48-48v-800c0-26.512 21.488-48 48-48h928c26.512 0 48 21.488 48 48v800c0 26.512-21.488 48-48 48zM928 32h-832v544h832v-544zM256 736c26.512 0 48 21.488 48 48v128c0 26.512-21.488 48-48 48s-48-21.488-48-48v-128c0-26.512 21.488-48 48-48zM430.064 158.064c8.688-8.688 20.688-14.064 33.936-14.064s25.248 5.376 33.936 14.064l224 224c8.688 8.672 14.064 20.688 14.064 33.936 0 26.512-21.488 48-48 48-13.248 0-25.248-5.376-33.936-14.064l-190.064-190.048-78.064 78.064c-8.688 8.672-20.688 14.048-33.936 14.048-26.512 0-48-21.488-48-48 0-13.248 5.376-25.248 14.064-33.936l112-112z" />
<glyph unicode="&#xe834;" glyph-name="camera" d="M512 608c-106.032 0-192-85.952-192-192 0-106.032 85.968-192 192-192s192 85.968 192 192-85.968 192-192 192zM976 768h-204.112l-81.552 81.456c-8.704 8.944-20.848 14.544-34.336 14.544h-288c-15.616 0-29.36-7.584-38.128-19.136l-76.864-76.864h-205.008c-26.512 0-48-21.488-48-48v-640c0-26.512 21.488-48 48-48h928c26.512 0 48 21.488 48 48v640c0 26.512-21.488 48-48 48zM512 128c-159.056 0-288 128.944-288 288s128.944 288 288 288c159.056 0 288-128.944 288-288s-128.944-288-288-288z" />
<glyph unicode="&#xe835;" glyph-name="cassette" d="M976 816h-928c-26.512 0-48-21.488-48-48v-640c0-26.512 21.488-48 48-48h133.904l77.536 193.824 0.064-0.032c7.072 17.68 24.288 30.208 44.496 30.208h416c20.208 0 37.424-12.512 44.496-30.192l0.064 0.032 77.536-193.84h133.904c26.512 0 48 21.488 48 48v640c0 26.512-21.488 48-48 48zM256 448c-35.344 0-64 28.656-64 64s28.656 64 64 64c35.344 0 64-28.656 64-64s-28.656-64-64-64zM640 448h-256v128h256v-128zM768 448c-35.344 0-64 28.656-64 64s28.656 64 64 64 64-28.656 64-64c0-35.344-28.656-64-64-64zM733.344 223.104c-6.368 19.056-24.144 32.896-45.344 32.896h-352c-20.736 0-38.256-13.232-44.96-31.648l-0.16 0.064-52.496-144.416h542.88l-47.728 143.184-0.192-0.080z" />
<glyph unicode="&#xe836;" glyph-name="chart" d="M976 960h-928c-26.512 0-48-21.488-48-48v-928c0-26.512 21.488-48 48-48h928c26.512 0 48 21.488 48 48v928c0 26.512-21.488 48-48 48zM928 32h-832v832h832v-832zM736 80h96c26.512 0 48 21.488 48 48v336c0 26.512-21.488 48-48 48h-96c-26.512 0-48-21.488-48-48v-336c0-26.512 21.488-48 48-48zM464 80h96c26.512 0 48 21.488 48 48v528c0 26.512-21.488 48-48 48h-96c-26.512 0-48-21.488-48-48v-528c0-26.512 21.488-48 48-48zM192 80h96c26.512 0 48 21.488 48 48v96c0 26.512-21.488 48-48 48h-96c-26.512 0-48-21.488-48-48v-96c0-26.512 21.488-48 48-48z" />
<glyph unicode="&#xe837;" glyph-name="chart_1_2" d="M512 960c-282.768 0-512-229.232-512-512s229.232-512 512-512 512 229.232 512 512-229.232 512-512 512zM512 32c-229.744 0-416 186.256-416 416s186.256 416 416 416v-832z" />
<glyph unicode="&#xe838;" glyph-name="chart_1_4" d="M512 960c-282.768 0-512-229.232-512-512s229.232-512 512-512 512 229.232 512 512-229.232 512-512 512zM512 32c-229.744 0-416 186.256-416 416s186.256 416 416 416v-416h416c0-229.744-186.256-416-416-416z" />
<glyph unicode="&#xe839;" glyph-name="chart_1_8" d="M512 960c-282.768 0-512-229.232-512-512s229.232-512 512-512 512 229.232 512 512-229.232 512-512 512zM512 32c-229.744 0-416 186.256-416 416s186.256 416 416 416v-416l294.16 294.16c75.28-75.28 121.84-179.28 121.84-294.16 0-229.744-186.256-416-416-416z" />
<glyph unicode="&#xe83a;" glyph-name="chart_3_4" d="M512 960c-282.768 0-512-229.232-512-512s229.232-512 512-512 512 229.232 512 512-229.232 512-512 512zM512 448h-416c0 229.744 186.256 416 416 416v-416z" />
<glyph unicode="&#xe83b;" glyph-name="chart_3_8" d="M512 960c-282.768 0-512-229.232-512-512s229.232-512 512-512 512 229.232 512 512-229.232 512-512 512zM512 32c-229.744 0-416 186.256-416 416s186.256 416 416 416v-416l294.16-294.16c-75.28-75.28-179.28-121.84-294.16-121.84z" />
<glyph unicode="&#xe83c;" glyph-name="chart_5_8" d="M512 960c-282.768 0-512-229.232-512-512s229.232-512 512-512 512 229.232 512 512-229.232 512-512 512zM512 448l-294.16-294.16c-75.28 75.28-121.84 179.28-121.84 294.16 0 229.744 186.256 416 416 416v-416z" />
<glyph unicode="&#xe83d;" glyph-name="chart_7_8" d="M512 960c-282.768 0-512-229.232-512-512s229.232-512 512-512 512 229.232 512 512-229.232 512-512 512zM512 448l-294.16 294.16c75.28 75.28 179.28 121.84 294.16 121.84v-416z" />
<glyph unicode="&#xe83e;" glyph-name="circle" d="M512 960c-282.768 0-512-229.232-512-512s229.232-512 512-512 512 229.232 512 512-229.232 512-512 512zM512 32c-229.744 0-416 186.256-416 416 0 229.76 186.256 416 416 416s416-186.24 416-416c0-229.744-186.256-416-416-416z" />
<glyph unicode="&#xe83f;" glyph-name="circle_delete" d="M512 960c-282.768 0-512-229.232-512-512s229.232-512 512-512 512 229.232 512 512-229.232 512-512 512zM512 32c-229.744 0-416 186.256-416 416 0 229.76 186.256 416 416 416s416-186.24 416-416c0-229.744-186.256-416-416-416zM736 624c0 26.512-21.488 48-48 48-13.248 0-25.248-5.376-33.936-14.064l-142.064-142.064-142.064 142.064c-8.672 8.688-20.688 14.064-33.936 14.064-26.512 0-48-21.488-48-48 0-13.248 5.376-25.248 14.064-33.936l142.048-142.064-142.064-142.064c-8.672-8.688-14.048-20.688-14.048-33.936 0-26.512 21.488-48 48-48 13.248 0 25.264 5.376 33.936 14.064l142.064 142.048 142.064-142.064c8.688-8.672 20.688-14.048 33.936-14.048 26.512 0 48 21.488 48 48 0 13.248-5.376 25.248-14.064 33.936l-142.048 142.064 142.064 142.048c8.672 8.704 14.048 20.688 14.048 33.952z" />
<glyph unicode="&#xe840;" glyph-name="circle_down" d="M656 448c-14.16 0-26.768-6.256-35.568-16l-0.128 0.112-60.304-67.024v290.912c0 26.512-21.488 48-48 48s-48-21.488-48-48v-290.912l-60.32 67.008-0.128-0.096c-8.784 9.76-21.392 16-35.552 16-26.512 0-48-21.488-48-48 0-12.336 4.784-23.488 12.448-32l-0.128-0.128 144-160 0.128 0.128c8.784-9.744 21.376-16 35.552-16 14.16 0 26.768 6.256 35.568 16l0.128-0.112 144 160-0.128 0.112c7.632 8.512 12.432 19.664 12.432 32 0 26.512-21.488 48-48 48zM512 960c-282.768 0-512-229.232-512-512s229.232-512 512-512 512 229.232 512 512-229.232 512-512 512zM512 32c-229.744 0-416 186.256-416 416 0 229.76 186.256 416 416 416s416-186.24 416-416c0-229.744-186.256-416-416-416z" />
<glyph unicode="&#xe841;" glyph-name="circle_fast_forward" d="M512 960c-282.768 0-512-229.232-512-512s229.232-512 512-512 512 229.232 512 512-229.232 512-512 512zM512 32c-229.744 0-416 186.256-416 416s186.256 416 416 416c229.744 0 416-186.24 416-416 0-229.744-186.256-416-416-416zM728.944 489.008l-155.184 108.624c-8.16 6.48-18.512 10.368-29.76 10.368-26.512 0-48-21.488-48-48 0-0.128 0.016-0.256 0.016-0.384h-0.080v-64.288l-146.16 102.304c-8.192 6.48-18.528 10.368-29.776 10.368-26.512 0-48-21.488-48-48 0-0.128 0.016-0.256 0.016-0.384h-0.080v-224h0.080c0.192-26.336 21.6-47.616 47.984-47.616 11.328 0 21.728 3.936 29.936 10.464l146 102.208v-65.072h0.080c0.192-26.32 21.6-47.6 47.984-47.6 11.328 0 21.712 3.936 29.936 10.464l154.88 108.432c13.888 8.416 23.184 23.68 23.184 41.104 0 17.376-9.232 32.592-23.056 41.008z" />
<glyph unicode="&#xe842;" glyph-name="circle_left" d="M720 496h-290.912l67.024 60.32-0.112 0.128c9.76 8.784 16 21.392 16 35.552 0 26.512-21.488 48-48 48-12.352 0-23.488-4.8-32-12.448l-0.112 0.128-160-144 0.112-0.128c-9.76-8.784-16-21.376-16-35.552s6.256-26.768 16-35.568l-0.112-0.128 160-144 0.112 0.128c8.512-7.648 19.648-12.432 32-12.432 26.512 0 48 21.488 48 48 0 14.16-6.256 26.768-16 35.568l0.112 0.128-67.024 60.304h290.912c26.512 0 48 21.488 48 48s-21.488 48-48 48zM512 960c-282.768 0-512-229.232-512-512s229.232-512 512-512 512 229.232 512 512-229.232 512-512 512zM512 32c-229.744 0-416 186.256-416 416 0 229.76 186.256 416 416 416s416-186.24 416-416c0-229.744-186.256-416-416-416z" />
<glyph unicode="&#xe843;" glyph-name="circle_minus" d="M720 496h-416c-26.512 0-48-21.488-48-48s21.488-48 48-48h416c26.512 0 48 21.488 48 48s-21.488 48-48 48zM512 960c-282.768 0-512-229.232-512-512s229.232-512 512-512 512 229.232 512 512-229.232 512-512 512zM512 32c-229.744 0-416 186.256-416 416 0 229.76 186.256 416 416 416s416-186.256 416-416c0-229.744-186.256-416-416-416z" />
<glyph unicode="&#xe844;" glyph-name="circle_ok" d="M736 271.984v0c0 0.016 0 0.016 0 0.032v-0.032zM736 624.016v-0.032c0 0 0 0.016 0 0.032 0-0.016 0-0.016 0 0zM704 624c-13.248 0-25.248-5.376-33.936-14.064l-222.064-222.064-110.064 110.064c-8.688 8.688-20.688 14.064-33.936 14.064-26.512 0-48-21.488-48-48 0-13.248 5.376-25.248 14.064-33.936l144-144c8.688-8.688 20.688-14.064 33.936-14.064s25.248 5.376 33.936 14.064l256 256c8.688 8.672 14.064 20.688 14.064 33.936 0 26.512-21.488 48-48 48zM512 960c-282.768 0-512-229.232-512-512s229.232-512 512-512 512 229.232 512 512-229.232 512-512 512zM512 32c-229.744 0-416 186.256-416 416 0 229.76 186.256 416 416 416s416-186.24 416-416c0-229.744-186.256-416-416-416z" />
<glyph unicode="&#xe845;" glyph-name="circle_pause" d="M512 960c-282.768 0-512-229.232-512-512s229.232-512 512-512 512 229.232 512 512-229.232 512-512 512zM512 32c-229.744 0-416 186.256-416 416s186.256 416 416 416c229.744 0 416-186.24 416-416 0-229.744-186.256-416-416-416zM464 576c0 26.512-21.488 48-48 48s-48-21.488-48-48c0-0.032 0-0.080 0-0.112h-0.032v-256h0.032c0.064-26.464 21.536-47.888 48-47.888 26.512 0 48 21.488 48 48 0 0.368-0.016 0.752-0.032 1.12v253.76c0.016 0.368 0.032 0.736 0.032 1.12zM656 576c0 26.512-21.488 48-48 48s-48-21.488-48-48c0-0.032 0-0.080 0-0.112h-0.032v-256h0.032c0.064-26.464 21.536-47.888 48-47.888 26.512 0 48 21.488 48 48 0 0.368-0.016 0.752-0.032 1.12v253.76c0.016 0.368 0.032 0.736 0.032 1.12z" />
<glyph unicode="&#xe846;" glyph-name="circle_play" d="M663.872 489.632l-252.8 158c-7.712 5.28-17.024 8.368-27.072 8.368-26.512 0-48-21.488-48-48v-320c0-26.512 21.488-48 48-48 1.056 0 2.096 0.048 3.12 0.112 0.272 0.016 0.544 0.048 0.816 0.064 0.88 0.080 1.744 0.176 2.608 0.304 0.16 0 0.336 0.032 0.496 0.064 1.024 0.16 2.048 0.336 3.056 0.56 0.16 0.032 0.304 0.080 0.464 0.112 0.912 0.208 1.792 0.416 2.672 0.688 0.144 0.048 0.288 0.080 0.432 0.128 2.048 0.608 4.032 1.344 5.952 2.208 0.080 0.032 0.144 0.064 0.224 0.096 1.968 0.912 3.872 1.936 5.68 3.056l0.208-0.32 254.592 159.584c14.144 8.288 23.68 23.68 23.68 41.344 0 17.824-9.712 33.36-24.128 41.632zM512 960c-282.768 0-512-229.232-512-512s229.232-512 512-512 512 229.232 512 512-229.232 512-512 512zM512 32c-229.744 0-416 186.256-416 416s186.256 416 416 416c229.744 0 416-186.24 416-416 0-229.744-186.256-416-416-416z" />
<glyph unicode="&#xe847;" glyph-name="circle_plus" d="M720 496h-160v160c0 26.512-21.488 48-48 48s-48-21.488-48-48v-160h-160c-26.512 0-48-21.488-48-48s21.488-48 48-48h160v-160c0-26.512 21.488-48 48-48s48 21.488 48 48v160h160c26.512 0 48 21.488 48 48s-21.488 48-48 48zM512 960c-282.768 0-512-229.232-512-512s229.232-512 512-512 512 229.232 512 512-229.232 512-512 512zM512 32c-229.744 0-416 186.256-416 416 0 229.76 186.256 416 416 416s416-186.256 416-416c0-229.744-186.256-416-416-416z" />
<glyph unicode="&#xe848;" glyph-name="circle_rewind" d="M752 560c0 26.512-21.488 48-48 48-11.248 0-21.6-3.872-29.776-10.368l-146.16-102.304v64.288h-0.096c0.016 0.128 0.032 0.256 0.032 0.384 0 26.512-21.488 48-48 48-11.248 0-21.584-3.872-29.776-10.368l-155.184-108.624c-13.808-8.416-23.040-23.632-23.040-41.008 0-17.424 9.296-32.688 23.184-41.088l154.88-108.432c8.208-6.544 18.608-10.48 29.936-10.48 26.384 0 47.776 21.28 47.984 47.632h0.080v65.056l146-102.192c8.224-6.56 18.608-10.496 29.936-10.496 26.368 0 47.776 21.28 47.984 47.632h0.080v224h-0.080c0 0.112 0.016 0.24 0.016 0.368zM512 960c-282.768 0-512-229.232-512-512s229.232-512 512-512 512 229.232 512 512-229.232 512-512 512zM512 32c-229.744 0-416 186.256-416 416s186.256 416 416 416c229.744 0 416-186.24 416-416 0-229.744-186.256-416-416-416z" />
<glyph unicode="&#xe849;" glyph-name="circle_right" d="M752 483.552l0.112 0.128-160 144-0.112-0.128c-8.512 7.648-19.664 12.448-32 12.448-26.512 0-48-21.488-48-48 0-14.16 6.256-26.768 16-35.552l-0.112-0.128 67.024-60.32h-290.912c-26.512 0-48-21.488-48-48s21.488-48 48-48h290.912l-67.008-60.32 0.096-0.112c-9.76-8.8-16-21.408-16-35.568 0-26.512 21.488-48 48-48 12.336 0 23.488 4.784 32 12.432l0.112-0.128 160 144-0.112 0.128c9.744 8.8 16 21.392 16 35.568s-6.256 26.752-16 35.552zM512 960c-282.768 0-512-229.232-512-512s229.232-512 512-512 512 229.232 512 512-229.232 512-512 512zM512 32c-229.744 0-416 186.256-416 416 0 229.76 186.256 416 416 416s416-186.24 416-416c0-229.744-186.256-416-416-416z" />
<glyph unicode="&#xe84a;" glyph-name="circle_skip_next" d="M624 608c-26.512 0-48-21.488-48-48v-68.64l-147.76 107.472-0.080-0.112c-7.936 5.776-17.6 9.28-28.16 9.28-26.512 0-48-21.488-48-48v-224c0-26.512 21.488-48 48-48 10.56 0 20.224 3.504 28.16 9.28l0.080-0.112 147.76 107.472v-68.64c0-26.512 21.488-48 48-48s48 21.488 48 48v224c0 26.512-21.488 48-48 48zM512 960c-282.768 0-512-229.232-512-512s229.232-512 512-512 512 229.232 512 512-229.232 512-512 512zM512 32c-229.744 0-416 186.256-416 416s186.256 416 416 416c229.744 0 416-186.24 416-416 0-229.744-186.256-416-416-416z" />
<glyph unicode="&#xe84b;" glyph-name="circle_skip_previous" d="M624 608c-10.56 0-20.256-3.504-28.16-9.28l-0.096 0.112-147.744-107.488v68.656c0 26.512-21.488 48-48 48s-48-21.488-48-48v-224c0-26.512 21.488-48 48-48s48 21.488 48 48v68.64l147.744-107.472 0.096 0.112c7.936-5.776 17.6-9.28 28.16-9.28 26.512 0 48 21.488 48 48v224c0 26.512-21.488 48-48 48zM512 960c-282.768 0-512-229.232-512-512s229.232-512 512-512 512 229.232 512 512-229.232 512-512 512zM512 32c-229.744 0-416 186.256-416 416s186.256 416 416 416c229.744 0 416-186.24 416-416 0-229.744-186.256-416-416-416z" />
<glyph unicode="&#xe84c;" glyph-name="circle_stop" d="M640 624h-256c-26.512 0-48-21.488-48-48v-256c0-26.512 21.488-48 48-48h256c26.512 0 48 21.488 48 48v256c0 26.512-21.488 48-48 48zM512 960c-282.768 0-512-229.232-512-512s229.232-512 512-512 512 229.232 512 512-229.232 512-512 512zM512 32c-229.744 0-416 186.256-416 416s186.256 416 416 416c229.744 0 416-186.24 416-416 0-229.744-186.256-416-416-416z" />
<glyph unicode="&#xe84d;" glyph-name="circle_up" d="M691.68 528.112l-144 160-0.112-0.112c-8.8 9.76-21.376 16-35.568 16-14.16 0-26.752-6.256-35.552-16l-0.128 0.112-144-160 0.128-0.112c-7.648-8.512-12.448-19.664-12.448-32 0-26.512 21.488-48 48-48 14.16 0 26.768 6.256 35.552 16l0.128-0.112 60.32 67.024v-290.912c0-26.512 21.488-48 48-48s48 21.488 48 48v290.912l60.32-67.024 0.112 0.112c8.8-9.76 21.408-16 35.568-16 26.512 0 48 21.488 48 48 0 12.352-4.8 23.488-12.432 32l0.112 0.112zM512 960c-282.768 0-512-229.232-512-512s229.232-512 512-512 512 229.232 512 512-229.232 512-512 512zM512 32c-229.744 0-416 186.256-416 416 0 229.76 186.256 416 416 416s416-186.24 416-416c0-229.744-186.256-416-416-416z" />
<glyph unicode="&#xe84e;" glyph-name="clip" d="M890.048 778.032c-112.464 112.464-294.816 112.464-407.296 0l-373.36-373.344c-81.232-81.232-81.232-212.928 0-294.16s212.928-81.232 294.16 0l350.72 350.72c49.984 49.984 49.984 131.024 0 181.024-49.984 49.984-131.040 49.984-181.024 0l-294.144-294.16c-18.752-18.752-18.752-49.136 0-67.888s49.136-18.752 67.888 0l294.16 294.16c12.496 12.496 32.752 12.496 45.248 0s12.496-32.752 0-45.248l-350.72-350.72c-43.744-43.744-114.656-43.744-158.384 0-43.744 43.744-43.744 114.656 0 158.4l373.344 373.344c74.976 74.976 196.544 74.976 271.536 0 74.976-74.976 74.976-196.544 0-271.536l-316.8-316.784c-18.752-18.752-18.752-49.136 0-67.888 18.752-18.736 49.136-18.736 67.888 0l316.784 316.784c112.464 112.48 112.464 294.832 0 407.296z" />
<glyph unicode="&#xe84f;" glyph-name="close" d="M579.888 448l190.064 190.064c8.672 8.672 14.048 20.688 14.048 33.936 0 26.512-21.488 48-48 48-13.248 0-25.248-5.376-33.936-14.064l-190.064-190.048-190.064 190.048c-8.688 8.688-20.688 14.064-33.936 14.064-26.512 0-48-21.488-48-48 0-13.248 5.376-25.248 14.064-33.936l190.048-190.064-190.048-190.064c-8.688-8.688-14.064-20.688-14.064-33.936 0-26.512 21.488-48 48-48 13.248 0 25.248 5.376 33.936 14.064l190.064 190.048 190.064-190.064c8.688-8.672 20.688-14.048 33.936-14.048 26.512 0 48 21.488 48 48 0 13.248-5.376 25.248-14.064 33.936l-190.048 190.064z" />
<glyph unicode="&#xe850;" glyph-name="cloud" d="M854.192 565.504c-53.424 137.12-186.144 234.496-342.192 234.496s-288.768-97.376-342.192-234.48c-98.288-30.032-169.808-121.408-169.808-229.52 0-132.544 107.456-240 240-240h544c132.544 0 240 107.456 240 240 0 108.112-71.536 199.488-169.808 229.504zM784 192h-544c-79.52 0-144 64.464-144 144 0 42.88 18.848 81.28 48.592 107.648 3.072 2.72 6.272 5.296 9.552 7.76 0.208 0.16 0.432 0.32 0.64 0.48 3.104 2.304 6.32 4.448 9.616 6.496 0.512 0.32 1.024 0.624 1.536 0.928 3.072 1.856 6.208 3.6 9.408 5.216 0.88 0.448 1.776 0.864 2.672 1.28 2.944 1.424 5.936 2.752 8.976 3.968 1.328 0.528 2.688 0.992 4.032 1.472 2.736 0.992 5.488 1.968 8.304 2.8 1.856 0.544 3.776 0.992 5.664 1.456 2.432 0.608 4.848 1.264 7.312 1.744 2.592 0.512 5.248 0.848 7.888 1.2 1.904 0.256 3.776 0.624 5.696 0.8 4.64 0.48 9.344 0.752 14.112 0.752 1.504 0 2.96-0.176 4.448-0.224 1.456 8.208 3.296 16.272 5.472 24.192 0.528 1.936 1.248 3.792 1.824 5.712 1.792 6 3.632 11.984 5.824 17.792 0.656 1.76 1.472 3.44 2.16 5.184 2.368 5.92 4.8 11.792 7.568 17.488 0.672 1.376 1.44 2.688 2.128 4.048 3.008 5.952 6.144 11.856 9.568 17.552 47.504 79.168 133.936 132.256 233.008 132.256 99.056 0 185.536-53.088 232.992-132.256 3.408-5.712 6.56-11.6 9.584-17.552 0.688-1.36 1.456-2.672 2.128-4.048 2.768-5.696 5.2-11.584 7.584-17.488 0.688-1.744 1.504-3.424 2.16-5.184 2.192-5.808 4.032-11.792 5.808-17.792 0.576-1.92 1.312-3.776 1.824-5.712 2.176-7.92 4.016-15.984 5.488-24.192 1.456 0.048 2.928 0.224 4.432 0.224 4.768 0 9.472-0.256 14.112-0.72 1.92-0.192 3.792-0.544 5.696-0.8 2.624-0.368 5.28-0.688 7.872-1.2 2.496-0.48 4.912-1.12 7.312-1.744 1.904-0.464 3.808-0.912 5.664-1.456 2.816-0.832 5.584-1.808 8.304-2.8 1.344-0.496 2.72-0.944 4.032-1.472 3.056-1.216 6.032-2.56 8.992-3.968 0.896-0.416 1.792-0.848 2.672-1.28 3.216-1.616 6.336-3.36 9.408-5.216 0.512-0.304 1.024-0.624 1.536-0.928 3.312-2.048 6.496-4.208 9.632-6.496 0.208-0.16 0.432-0.32 0.64-0.48 3.296-2.464 6.48-5.040 9.552-7.76 29.728-26.416 48.576-64.8 48.576-107.68 0-79.536-64.464-144-144-144z" />
<glyph unicode="&#xe851;" glyph-name="cloud_download" d="M656 256c-14.16 0-26.912-6.144-35.68-15.888v0l-60.32-67.024v242.912c0 26.512-21.488 48-48 48s-48-21.488-48-48v-242.912l-60.32 67.008c-8.784 9.76-21.52 15.904-35.68 15.904-26.512 0-48-21.488-48-48 0-1.536 0.080-3.056 0.224-4.576v0c0.992-10.544 5.392-20.096 12.096-27.536v0l144-160 0.128 0.112c8.784-9.744 21.392-16 35.552-16s26.768 6.256 35.568 16.016l0.128-0.112 144 160c6.688 7.44 11.088 16.976 12.096 27.504 0 0.032 0 0.064 0 0.096 0.128 1.472 0.208 2.96 0.208 4.48v0.016c0 1.664-0.080 3.296-0.256 4.912-2.448 24.176-22.896 43.088-47.744 43.088zM854.192 645.504c-53.424 137.12-186.144 234.496-342.192 234.496-156.032 0-288.768-97.376-342.192-234.48-98.288-30.032-169.808-121.408-169.808-229.52 0-132.544 107.456-240 240-240 26.512 0 48 21.488 48 48s-21.488 48-48 48c-79.52 0-144 64.464-144 144 0 42.88 18.848 81.28 48.592 107.648 3.072 2.72 6.272 5.296 9.552 7.76 0.208 0.16 0.432 0.32 0.64 0.48 3.104 2.304 6.32 4.448 9.616 6.496 0.512 0.32 1.024 0.624 1.536 0.928 3.072 1.856 6.208 3.6 9.408 5.216 0.88 0.448 1.776 0.864 2.672 1.28 2.944 1.424 5.936 2.752 8.976 3.968 1.328 0.528 2.688 0.992 4.032 1.472 2.736 0.992 5.488 1.968 8.304 2.8 1.856 0.544 3.776 0.992 5.664 1.456 2.432 0.608 4.848 1.264 7.312 1.744 2.592 0.512 5.248 0.848 7.888 1.2 1.904 0.256 3.776 0.624 5.696 0.8 4.64 0.48 9.344 0.752 14.112 0.752 1.504 0 2.96-0.176 4.448-0.224 1.456 8.208 3.296 16.272 5.472 24.192 0.528 1.936 1.248 3.792 1.824 5.712 1.792 6 3.632 11.984 5.824 17.792 0.656 1.76 1.472 3.44 2.16 5.184 2.368 5.92 4.8 11.792 7.568 17.488 0.672 1.376 1.44 2.688 2.128 4.048 3.008 5.952 6.144 11.856 9.568 17.552 47.504 79.168 133.936 132.256 233.008 132.256 99.056 0 185.536-53.088 232.992-132.256 3.408-5.712 6.56-11.6 9.584-17.552 0.688-1.36 1.456-2.672 2.128-4.048 2.768-5.696 5.2-11.584 7.584-17.488 0.688-1.744 1.504-3.424 2.16-5.184 2.192-5.808 4.032-11.792 5.808-17.792 0.576-1.92 1.312-3.776 1.824-5.712 2.176-7.92 4.016-15.984 5.488-24.192 1.456 0.048 2.928 0.224 4.432 0.224 4.768 0 9.472-0.256 14.112-0.72 1.92-0.192 3.792-0.544 5.696-0.8 2.624-0.368 5.28-0.688 7.872-1.2 2.496-0.48 4.912-1.12 7.312-1.744 1.904-0.464 3.808-0.912 5.664-1.456 2.816-0.832 5.584-1.808 8.304-2.8 1.344-0.496 2.72-0.944 4.032-1.472 3.056-1.216 6.032-2.56 8.992-3.968 0.896-0.416 1.792-0.848 2.672-1.28 3.216-1.616 6.336-3.36 9.424-5.216 0.512-0.304 1.008-0.624 1.552-0.928 3.28-2.048 6.48-4.208 9.616-6.496 0.208-0.16 0.416-0.32 0.64-0.48 3.296-2.464 6.496-5.040 9.552-7.76 29.712-26.416 48.56-64.8 48.56-107.68 0-79.536-64.464-144-144-144-26.512 0-48-21.488-48-48s21.488-48 48-48c132.544 0 240 107.456 240 240 0 108.112-71.536 199.488-169.808 229.504z" />
<glyph unicode="&#xe852;" glyph-name="cloud_fail" d="M688 336c0 26.512-21.488 48-48 48-13.248 0-25.248-5.376-33.936-14.064l-94.064-94.064-94.064 94.064c-8.688 8.688-20.672 14.064-33.936 14.064-26.512 0-48-21.488-48-48 0-13.264 5.376-25.248 14.064-33.936l94.048-94.064-94.064-94.064c-8.672-8.688-14.048-20.688-14.048-33.936 0-26.512 21.488-48 48-48 13.248 0 25.248 5.376 33.936 14.048l94.064 94.064 94.064-94.064c8.688-8.672 20.688-14.048 33.936-14.048 26.512 0 48 21.488 48 48 0 13.264-5.376 25.264-14.064 33.936l-94.048 94.064 94.064 94.064c8.672 8.672 14.048 20.672 14.048 33.936zM854.192 629.504c-53.424 137.12-186.16 234.496-342.192 234.496s-288.768-97.376-342.192-234.48c-98.288-30.032-169.808-121.408-169.808-229.52 0-132.544 107.456-240 240-240 26.512 0 48 21.488 48 48s-21.488 48-48 48c-79.536 0-144 64.464-144 144 0 42.88 18.848 81.28 48.592 107.648 3.072 2.72 6.272 5.296 9.552 7.76 0.208 0.16 0.432 0.32 0.64 0.48 3.104 2.304 6.32 4.448 9.6 6.496 0.512 0.32 1.024 0.624 1.536 0.928 3.072 1.856 6.208 3.6 9.424 5.216 0.88 0.448 1.776 0.864 2.672 1.28 2.944 1.424 5.936 2.752 8.976 3.968 1.328 0.528 2.688 0.992 4.032 1.472 2.736 0.992 5.488 1.968 8.304 2.8 1.856 0.544 3.776 0.992 5.664 1.456 2.432 0.608 4.848 1.264 7.312 1.744 2.592 0.512 5.248 0.848 7.888 1.2 1.904 0.256 3.776 0.624 5.696 0.8 4.64 0.48 9.344 0.752 14.112 0.752 1.504 0 2.96-0.176 4.448-0.224 1.456 8.208 3.296 16.272 5.472 24.192 0.528 1.936 1.248 3.792 1.824 5.712 1.792 6 3.632 11.984 5.824 17.792 0.656 1.76 1.472 3.44 2.16 5.184 2.368 5.92 4.8 11.792 7.568 17.488 0.672 1.376 1.44 2.688 2.128 4.048 3.008 5.952 6.144 11.856 9.584 17.552 47.488 79.168 133.92 132.256 232.992 132.256 99.056 0 185.504-53.088 232.992-132.256 3.408-5.712 6.56-11.6 9.584-17.552 0.688-1.36 1.456-2.672 2.128-4.048 2.768-5.696 5.2-11.584 7.584-17.488 0.688-1.744 1.504-3.424 2.16-5.184 2.192-5.808 4.032-11.792 5.808-17.792 0.576-1.92 1.312-3.776 1.824-5.712 2.176-7.92 4.016-15.984 5.488-24.192 1.456 0.048 2.928 0.224 4.432 0.224 4.768 0 9.472-0.256 14.112-0.72 1.92-0.192 3.792-0.544 5.696-0.8 2.624-0.368 5.28-0.688 7.872-1.2 2.496-0.48 4.912-1.12 7.312-1.744 1.904-0.464 3.808-0.912 5.664-1.456 2.816-0.832 5.584-1.808 8.304-2.8 1.344-0.496 2.72-0.944 4.032-1.472 3.056-1.216 6.032-2.56 8.992-3.968 0.896-0.416 1.792-0.848 2.672-1.28 3.216-1.616 6.336-3.36 9.408-5.216 0.512-0.304 1.024-0.624 1.536-0.928 3.312-2.048 6.496-4.208 9.632-6.496 0.208-0.16 0.432-0.32 0.64-0.48 3.296-2.464 6.48-5.040 9.552-7.76 29.728-26.416 48.576-64.8 48.576-107.68 0-79.536-64.464-144-144-144-26.512 0-48-21.488-48-48s21.488-48 48-48c132.544 0 240 107.456 240 240 0 108.112-71.536 199.488-169.808 229.504z" />
<glyph unicode="&#xe853;" glyph-name="cloud_ok" d="M688 384c-16.624 0-31.264-8.432-39.888-21.28l-142.976-207.968-87.2 87.2c-8.688 8.672-20.688 14.048-33.936 14.048-26.512 0-48-21.488-48-48 0-13.264 5.376-25.264 14.064-33.936l128-128c8.688-8.688 20.688-14.064 33.936-14.064 16.624 0 31.264 8.432 39.888 21.28l175.504 255.264c5.424 7.776 8.608 17.232 8.608 27.456 0 26.512-21.488 48-48 48zM854.192 629.504c-53.424 137.12-186.16 234.496-342.192 234.496-156.048 0-288.768-97.376-342.192-234.48-98.288-30.032-169.808-121.408-169.808-229.52 0-132.544 107.456-240 240-240 26.512 0 48 21.488 48 48s-21.488 48-48 48c-79.536 0-144 64.464-144 144 0 42.88 18.848 81.28 48.592 107.648 3.072 2.72 6.272 5.296 9.552 7.76 0.208 0.16 0.432 0.32 0.64 0.48 3.104 2.304 6.32 4.448 9.616 6.496 0.512 0.32 1.024 0.624 1.536 0.928 3.072 1.856 6.208 3.6 9.408 5.216 0.88 0.448 1.776 0.864 2.672 1.28 2.944 1.424 5.936 2.752 8.976 3.968 1.328 0.528 2.688 0.992 4.032 1.472 2.736 0.992 5.488 1.968 8.304 2.8 1.856 0.544 3.776 0.992 5.664 1.456 2.432 0.608 4.848 1.264 7.312 1.744 2.592 0.512 5.248 0.848 7.888 1.2 1.904 0.256 3.776 0.624 5.696 0.8 4.64 0.48 9.344 0.752 14.112 0.752 1.504 0 2.96-0.176 4.448-0.224 1.456 8.208 3.296 16.272 5.472 24.192 0.528 1.936 1.248 3.792 1.824 5.712 1.792 6 3.632 11.984 5.824 17.792 0.656 1.76 1.472 3.44 2.16 5.184 2.368 5.92 4.8 11.792 7.568 17.488 0.656 1.376 1.44 2.688 2.128 4.048 3.008 5.952 6.144 11.856 9.568 17.552 47.504 79.168 133.936 132.256 233.008 132.256 99.056 0 185.504-53.088 232.992-132.256 3.408-5.712 6.56-11.6 9.584-17.552 0.688-1.36 1.456-2.672 2.128-4.048 2.752-5.696 5.2-11.584 7.584-17.488 0.688-1.744 1.504-3.424 2.16-5.184 2.192-5.808 4.032-11.792 5.808-17.792 0.576-1.92 1.312-3.776 1.824-5.712 2.176-7.92 4.016-15.984 5.488-24.192 1.456 0.048 2.928 0.224 4.432 0.224 4.768 0 9.472-0.256 14.112-0.72 1.92-0.192 3.792-0.544 5.696-0.8 2.624-0.368 5.28-0.688 7.872-1.2 2.496-0.48 4.912-1.12 7.312-1.744 1.904-0.464 3.808-0.912 5.664-1.456 2.816-0.832 5.584-1.808 8.304-2.8 1.344-0.496 2.72-0.944 4.032-1.472 3.056-1.216 6.032-2.56 8.992-3.968 0.896-0.416 1.792-0.848 2.672-1.28 3.2-1.616 6.336-3.36 9.408-5.216 0.512-0.304 1.024-0.624 1.536-0.928 3.312-2.048 6.496-4.208 9.632-6.496 0.208-0.16 0.432-0.32 0.64-0.48 3.296-2.464 6.48-5.040 9.552-7.76 29.728-26.416 48.576-64.8 48.576-107.68 0-79.536-64.464-144-144-144-26.512 0-48-21.488-48-48s21.488-48 48-48c132.544 0 240 107.456 240 240 0 108.112-71.536 199.488-169.808 229.504z" />
<glyph unicode="&#xe854;" glyph-name="cloud_upload" d="M703.776 260.496c0 0.032 0 0.064 0 0.096-1.008 10.528-5.408 20.080-12.096 27.504v0l-0.128 0.16c-0.032 0-0.032 0.032-0.064 0.032l-143.84 159.824-0.112-0.112c-8.784 9.76-21.376 16-35.552 16-14.16 0-26.768-6.256-35.552-16l-0.128 0.112-143.808-159.792c-0.032-0.032-0.064-0.064-0.096-0.096l-0.096-0.112c-7.632-8.512-12.304-19.776-12.304-32.112 0-8.288 2.096-16.080 5.792-22.88 8.128-14.96 23.984-25.12 42.208-25.12 0.528 0 1.056 0.032 1.584 0.048 0.304 0.016 0.608 0.016 0.912 0.032 0.352 0.016 0.688 0.048 1.040 0.080 0.528 0.032 1.056 0.096 1.568 0.128 0.192 0.032 0.384 0.064 0.576 0.096 0.704 0.064 1.392 0.176 2.080 0.288 0.016 0 0.048 0 0.064 0.016 10.976 1.792 20.704 7.328 27.84 15.248v0l60.336 66.976v-242.912c0-26.512 21.488-48 48-48s48 21.488 48 48v242.912l60.32-67.008c7.136-7.92 16.896-13.456 27.872-15.248 0.032 0 0.032 0 0.032 0 0.72-0.112 1.408-0.208 2.128-0.304 0.176 0 0.352-0.032 0.528-0.064 0.528-0.032 1.072-0.096 1.6-0.128 0.336-0.032 0.688-0.064 1.008-0.080s0.64-0.016 0.96-0.032c0.528-0.032 1.024-0.048 1.552-0.048 26.512 0 48 21.488 48 48 0 0.016 0 0.016 0 0.032 0 1.504-0.080 2.992-0.224 4.464zM854.192 645.504c-53.424 137.12-186.144 234.496-342.192 234.496-156.032 0-288.768-97.376-342.192-234.48-98.288-30.032-169.808-121.408-169.808-229.52 0-132.544 107.456-240 240-240 26.512 0 48 21.488 48 48s-21.488 48-48 48c-79.536 0-144 64.464-144 144 0 42.88 18.848 81.28 48.592 107.648 3.072 2.72 6.272 5.296 9.552 7.76 0.208 0.16 0.432 0.32 0.64 0.48 3.104 2.304 6.32 4.448 9.6 6.496 0.512 0.32 1.024 0.624 1.536 0.928 3.072 1.856 6.208 3.6 9.408 5.216 0.88 0.448 1.776 0.864 2.672 1.28 2.944 1.424 5.936 2.752 8.976 3.968 1.328 0.528 2.688 0.992 4.032 1.472 2.736 0.992 5.488 1.968 8.304 2.8 1.856 0.544 3.776 0.992 5.664 1.456 2.432 0.608 4.848 1.264 7.312 1.744 2.592 0.512 5.248 0.848 7.888 1.2 1.904 0.256 3.776 0.624 5.696 0.8 4.656 0.48 9.36 0.752 14.128 0.752 1.504 0 2.96-0.176 4.448-0.224 1.456 8.208 3.296 16.272 5.472 24.192 0.528 1.936 1.248 3.792 1.824 5.712 1.792 6 3.632 11.984 5.824 17.792 0.656 1.76 1.472 3.44 2.16 5.184 2.368 5.92 4.8 11.792 7.568 17.488 0.672 1.376 1.44 2.688 2.128 4.048 3.008 5.952 6.144 11.856 9.584 17.552 47.488 79.168 133.92 132.256 232.992 132.256 99.056 0 185.536-53.088 232.992-132.256 3.408-5.712 6.56-11.6 9.568-17.552 0.688-1.36 1.456-2.672 2.128-4.048 2.768-5.696 5.2-11.584 7.568-17.488 0.688-1.744 1.504-3.424 2.16-5.184 2.208-5.808 4.032-11.792 5.84-17.792 0.56-1.92 1.28-3.776 1.808-5.712 2.192-7.92 4.016-15.984 5.472-24.192 1.488 0.048 2.96 0.224 4.464 0.224 4.768 0 9.472-0.256 14.112-0.72 1.92-0.192 3.792-0.544 5.696-0.8 2.624-0.368 5.28-0.688 7.872-1.2 2.496-0.48 4.912-1.12 7.312-1.744 1.904-0.464 3.808-0.912 5.664-1.456 2.816-0.832 5.584-1.808 8.304-2.8 1.344-0.496 2.72-0.944 4.032-1.472 3.056-1.216 6.032-2.56 8.992-3.968 0.896-0.416 1.792-0.848 2.672-1.28 3.216-1.616 6.336-3.36 9.408-5.216 0.512-0.304 1.024-0.624 1.536-0.928 3.312-2.048 6.496-4.208 9.632-6.496 0.208-0.16 0.432-0.32 0.64-0.48 3.296-2.464 6.48-5.040 9.552-7.76 29.728-26.416 48.576-64.8 48.576-107.68 0-79.536-64.464-144-144-144-26.512 0-48-21.488-48-48s21.488-48 48-48c132.544 0 240 107.456 240 240 0 108.112-71.536 199.488-169.808 229.504z" />
<glyph unicode="&#xe855;" glyph-name="code" d="M240.496 688c-13.504 0-25.664-5.632-34.384-14.608l-0.048 0.048-189.216-189.2c-10.24-8.8-16.848-21.696-16.848-36.24 0-13.504 5.616-25.664 14.592-34.368l-0.032-0.064 192.048-191.936c8.64-8.416 20.384-13.632 33.392-13.632 26.512 0 48 21.488 48 48 0 12.992-5.216 24.752-13.616 33.392l0.048 0.048-158.304 158.32 157.76 157.856c8.976 8.72 14.608 20.88 14.608 34.384 0 26.512-21.488 48-48 48zM1024.496 448c0 14.56-6.608 27.44-16.848 36.24l-189.248 189.152c-8.736 8.976-20.896 14.608-34.4 14.608-26.512 0-48-21.488-48-48 0-13.504 5.632-25.664 14.608-34.384l-0.048-0.048 157.808-157.808-158.272-158.368c-8.384-8.64-13.616-20.384-13.616-33.392 0-26.512 21.488-48 48-48 12.992 0 24.752 5.216 33.408 13.632l0.048-0.064 191.952 192.064c8.992 8.704 14.608 20.864 14.608 34.368zM640 832c-20.8 0-38.496-13.232-45.168-31.712l-255.632-671.072c-2.064-5.344-3.2-11.152-3.2-17.216 0-26.512 21.488-48 48-48 20.8 0 38.496 13.232 45.168 31.712l255.632 671.072c2.080 5.344 3.2 11.136 3.2 17.216 0 26.512-21.488 48-48 48z" />
<glyph unicode="&#xe856;" glyph-name="cog" d="M512 640c-106.032 0-192-85.952-192-192 0-106.032 85.952-192 192-192s192 85.968 192 192-85.968 192-192 192zM512 352c-53.024 0-96 42.976-96 96s42.976 96 96 96c53.024 0 96-42.976 96-96s-42.976-96-96-96zM888.288 552.608c-8.656 31.312-21.216 60.976-36.976 88.576 17.936 24.112 79.68 114.288 35.184 158.816l-22.848 24.112c-38.064 38.048-135.28-21.376-158.896-36.768-27.92 15.824-57.92 28.384-89.6 36.96-5.072 30.192-27.264 135.792-89.904 135.792h-25.072c-53.776 0-84.64-109.184-91.536-136.544-31.232-8.72-60.816-21.344-88.352-37.12-21.712 16.144-114.832 80.512-160.288 35.072l-24.112-20.288c-39.616-39.6 26.208-144.064 38.24-162.352-15.232-27.168-27.44-56.272-35.856-86.96-26.256-4.192-138.384-25.824-138.384-90.336v-25.056c0-55.888 117.584-86.928 139.040-92.144 8.528-30.464 20.8-59.344 36.080-86.304-12.656-19.824-75.92-123.824-36.672-163.104l22.832-19.008c51.664-51.664 159.584 33.2 159.584 33.2l-5.024 5.344c28.624-16.928 59.616-30.336 92.368-39.52 5.36-22.064 36.4-138.832 92.080-138.832h25.072c73.056 0 91.152 136.336 91.152 136.336l-6.688 0.208c33.104 8.464 64.496 21.2 93.616 37.52 22.816-15.184 118.416-75.008 156.576-36.864l25.392 25.408c50.928 50.928-31.952 155.136-34.272 158.032 15.744 27.552 28.368 57.136 37.056 88.4 28.48 7.232 135.728 37.984 135.728 91.312v25.056c0 70.768-127.552 89.92-135.52 91.056zM512 160c-159.056 0-288 128.944-288 288s128.944 288 288 288c159.056 0 288-128.944 288-288s-128.944-288-288-288z" />
<glyph unicode="&#xe857;" glyph-name="columns" d="M976 864h-928c-26.512 0-48-21.488-48-48v-736c0-26.512 21.488-48 48-48h928c26.512 0 48 21.488 48 48v736c0 26.512-21.488 48-48 48zM336 128h-240v640h240v-640zM640 128h-256v640h256v-640zM928 128h-240v640h240v-640z" />
<glyph unicode="&#xe858;" glyph-name="command" d="M816 336h-96v224h96c106.032 0 192 85.952 192 192s-85.952 192-192 192c-106.048 0-192-85.968-192-192v-96h-224v96c0 106.048-85.968 192-192 192s-192-85.968-192-192c0-106.032 85.968-192 192-192h96v-224h-96c-106.032 0-192-85.968-192-192 0-106.048 85.968-192 192-192s192 85.952 192 192v96h224v-96c0-106.048 85.952-192 192-192 106.032 0 192 85.952 192 192 0 106.032-85.968 192-192 192zM720 752c0 53.024 42.976 96 96 96s96-42.976 96-96-42.976-96-96-96h-96v96zM304 144c0-53.024-42.976-96-96-96s-96 42.976-96 96c0 53.024 42.976 96 96 96h96v-96zM304 656h-96c-53.024 0-96 42.976-96 96s42.976 96 96 96c53.024 0 96-42.976 96-96v-96zM624 336h-224v224h224v-224zM816 48c-53.024 0-96 42.976-96 96v96h112v-1.616c45.36-7.648 80-46.848 80-94.384 0-53.024-42.976-96-96-96z" />
<glyph unicode="&#xe859;" glyph-name="compass" d="M256 704l144-352 368-160-144 368-368 144zM512 400c-26.512 0-48 21.488-48 48s21.488 48 48 48 48-21.488 48-48-21.488-48-48-48zM512 960c-282.768 0-512-229.232-512-512s229.232-512 512-512 512 229.232 512 512-229.232 512-512 512zM512 32c-229.744 0-416 186.256-416 416 0 229.76 186.256 416 416 416s416-186.256 416-416c0-229.744-186.256-416-416-416z" />
<glyph unicode="&#xe85a;" glyph-name="computer_add" d="M416 512h48v-48c0-26.512 21.488-48 48-48s48 21.488 48 48v48h48c26.512 0 48 21.488 48 48s-21.488 48-48 48h-48v48c0 26.512-21.488 48-48 48s-48-21.488-48-48v-48h-48c-26.512 0-48-21.488-48-48s21.488-48 48-48zM960 896h-896c-26.512 0-48-21.488-48-48v-640c0-26.512 21.488-48 48-48h304v-80l-64-64v-16h416v16l-64 64v80h304c26.512 0 48 21.488 48 48v640c0 26.512-21.488 48-48 48zM944 288h-864v544h864v-544z" />
<glyph unicode="&#xe85b;" glyph-name="computer_delete" d="M960 896h-896c-26.512 0-48-21.488-48-48v-640c0-26.512 21.488-48 48-48h304v-80l-64-64v-16h416v16l-64 64v80h304c26.512 0 48 21.488 48 48v640c0 26.512-21.488 48-48 48zM944 288h-864v544h864v-544zM368 464c0-26.512 21.488-48 48-48 13.248 0 25.248 5.376 33.936 14.064l62.064 62.048 62.064-62.064c8.688-8.672 20.688-14.048 33.936-14.048 26.512 0 48 21.488 48 48 0 13.248-5.376 25.248-14.064 33.936l-62.048 62.064 62.064 62.064c8.672 8.688 14.048 20.688 14.048 33.936 0 26.512-21.488 48-48 48-13.248 0-25.248-5.376-33.936-14.064l-62.064-62.048-62.064 62.064c-8.688 8.672-20.688 14.048-33.936 14.048-26.512 0-48-21.488-48-48 0-13.248 5.376-25.248 14.064-33.936l62.048-62.064-62.064-62.064c-8.672-8.688-14.048-20.688-14.048-33.936z" />
<glyph unicode="&#xe85c;" glyph-name="computer_download" d="M352 656c0-13.248 5.376-25.248 14.064-33.936l112-112c8.688-8.688 20.688-14.064 33.936-14.064s25.248 5.376 33.936 14.064l112 112c8.688 8.672 14.064 20.688 14.064 33.936 0 26.512-21.488 48-48 48-13.248 0-25.248-5.376-33.936-14.064l-30.064-30.064v220.128c0 26.512-21.488 48-48 48s-48-21.488-48-48v-220.112l-30.064 30.064c-8.688 8.672-20.688 14.048-33.936 14.048-26.512 0-48-21.488-48-48zM960 864h-352v-64h336v-544h-864v544h336v64h-352c-26.512 0-48-21.488-48-48v-640c0-26.512 21.488-48 48-48h304v-80l-64-64v-16h416v16l-64 64v80h304c26.512 0 48 21.488 48 48v640c0 26.512-21.488 48-48 48z" />
<glyph unicode="&#xe85d;" glyph-name="computer_ok" d="M446.064 462.064c8.688-8.688 20.688-14.064 33.936-14.064 13.264 0 25.248 5.376 33.936 14.064l128 128c8.688 8.688 14.064 20.672 14.064 33.936 0 26.512-21.488 48-48 48-13.248 0-25.248-5.376-33.936-14.064l-94.064-94.048-30.064 30.064c-8.688 8.672-20.688 14.048-33.936 14.048-26.512 0-48-21.488-48-48 0-13.248 5.376-25.248 14.064-33.936l64-64zM960 896h-896c-26.512 0-48-21.488-48-48v-640c0-26.512 21.488-48 48-48h304v-80l-64-64v-16h416v16l-64 64v80h304c26.512 0 48 21.488 48 48v640c0 26.512-21.488 48-48 48zM944 288h-864v544h864v-544z" />
<glyph unicode="&#xe85e;" glyph-name="computer_remove" d="M416 512h192c26.512 0 48 21.488 48 48s-21.488 48-48 48h-192c-26.512 0-48-21.488-48-48s21.488-48 48-48zM960 896h-896c-26.512 0-48-21.488-48-48v-640c0-26.512 21.488-48 48-48h304v-80l-64-64v-16h416v16l-64 64v80h304c26.512 0 48 21.488 48 48v640c0 26.512-21.488 48-48 48zM944 288h-864v544h864v-544z" />
<glyph unicode="&#xe85f;" glyph-name="computer_upload" d="M400 720c13.264 0 25.264 5.376 33.936 14.064l30.064 30.048v-220.112c0-26.512 21.488-48 48-48s48 21.488 48 48v220.112l30.064-30.064c8.688-8.672 20.688-14.048 33.936-14.048 26.512 0 48 21.488 48 48 0 13.248-5.376 25.248-14.064 33.936l-112 112c-8.688 8.688-20.672 14.064-33.936 14.064-13.248 0-25.248-5.376-33.936-14.064l-112-112c-8.688-8.688-14.064-20.688-14.064-33.936 0-26.512 21.488-48 48-48zM960 864h-296.256l64-64h216.256v-544h-864v544h216.24l64 64h-296.24c-26.512 0-48-21.488-48-48v-640c0-26.512 21.488-48 48-48h304v-80l-64-64v-16h416v16l-64 64v80h304c26.512 0 48 21.488 48 48v640c0 26.512-21.488 48-48 48z" />
<glyph unicode="&#xe860;" glyph-name="copy_1" d="M608 32h-512v512h176v96h-224c-26.512 0-48-21.488-48-48v-608c0-26.512 21.488-48 48-48h608c26.512 0 48 21.488 48 48v224h-96v-176zM976 960h-608c-26.512 0-48-21.488-48-48v-608c0-26.512 21.488-48 48-48h608c26.512 0 48 21.488 48 48v608c0 26.512-21.488 48-48 48zM928 352h-512v512h512v-512z" />
<glyph unicode="&#xe861;" glyph-name="copy_2" d="M656 640h-608c-26.512 0-48-21.488-48-48v-608c0-26.512 21.488-48 48-48h608c26.512 0 48 21.488 48 48v608c0 26.512-21.488 48-48 48zM608 32h-512v512h512v-512zM976 960h-608c-26.512 0-48-21.488-48-48v-224h96v176h512v-512h-176v-96h224c26.512 0 48 21.488 48 48v608c0 26.496-21.488 48-48 48z" />
<glyph unicode="&#xe862;" glyph-name="credit_card" d="M0 144c0-26.512 21.488-48 48-48h928c26.512 0 48 21.488 48 48v368h-1024v-368zM96 336h480v-48h-480v48zM96 240h192v-48h-192v48zM976 800h-928c-26.512 0-48-21.488-48-48v-144h1024v144c0 26.512-21.488 48-48 48z" />
<glyph unicode="&#xe863;" glyph-name="crop" d="M976 176h-96v572.112l129.936 129.936c8.688 8.688 14.064 20.704 14.064 33.952 0 26.512-21.488 48-48 48-13.264 0-25.248-5.376-33.936-14.064l-129.952-129.936h-572.112v96c0 26.512-21.488 48-48 48s-48-21.488-48-48v-96h-96c-26.512 0-48-21.488-48-48s21.488-48 48-48h96v-572.128l-1.936-1.936 1.936-1.936v-24c0-22.096 17.904-40 40-40h24l1.936-1.936 1.952 1.936h572.112v-96c0-26.512 21.488-48 48-48s48 21.488 48 48v96h96c26.512 0 48 21.488 48 48s-21.488 48-48 48zM240 720h476.112l-476.112-476.112v476.112zM784 176h-476.112l476.112 476.112v-476.112z" />
<glyph unicode="&#xe864;" glyph-name="diskette" d="M240 559.984c0-26.576 21.488-48.112 48-48.112h64v0.128l352-0.128c26.512 0 48 21.536 48 48.112v384.016h-512v-384.016zM512 880h144v-304h-144v304zM1009.936 785.936l-144 144c-8.688 8.688-20.672 14.064-33.936 14.064h-32v-384.016c0-52.352-41.76-94.72-93.696-95.984h-420.608c-51.92 1.248-93.696 43.632-93.696 95.984v384.016h-144c-26.512 0-48-21.488-48-48v-896c0-26.512 21.488-48 48-48h928c26.512 0 48 21.488 48 48v752c0 13.248-5.376 25.248-14.064 33.936z" />
<glyph unicode="&#xe865;" glyph-name="document" d="M560 591.872h304l-352 320.704v-272.592c0-26.576 21.488-48.112 48-48.112zM464 639.984v272.016h-256c-26.512 0-48-21.488-48-48v-832c0-26.512 21.488-48 48-48h608c26.512 0 48 21.488 48 48v511.776h-304c-53.024 0-96 43.072-96 96.208z" />
<glyph unicode="&#xe866;" glyph-name="document_add" d="M496 607.872h304l-352 320.704v-272.592c0-26.576 21.488-48.112 48-48.112zM896 144h-48v48c0 26.512-21.488 48-48 48s-48-21.488-48-48v-48h-48c-26.512 0-48-21.488-48-48s21.488-48 48-48h48v-48c0-26.512 21.488-48 48-48s48 21.488 48 48v48h48c26.512 0 48 21.488 48 48s-21.488 48-48 48zM608 96c0 53.024 42.976 96 96 96 0 53.024 42.976 96 96 96v271.776h-304c-53.024 0-96 43.072-96 96.208v272.592h-144v-0.576h-112c-26.512 0-48-21.488-48-48v-832c0-26.512 21.488-48 48-48h560c-53.024 0-96 42.976-96 96z" />
<glyph unicode="&#xe867;" glyph-name="document_delete" d="M480 607.872h304l-352 320.704v-272.592c0-26.576 21.488-48.112 48-48.112zM664.256 96l-28.128 28.112c-17.376 17.376-28.128 41.376-28.128 67.888 0 53.024 42.976 96 96 96 26.512 0 50.432-10.8 67.808-28.192l0.080 0.080 12.112-12.144v312h-304c-53.024 0-96 43.072-96 96.208v272.048h-256c-26.512 0-48-21.488-48-48v-832c0-26.512 21.488-48 48-48h480c0 26.512 10.752 50.496 28.128 67.872l-0.016 0.016 28.144 28.112zM867.888 96l62.064 62.048c8.672 8.704 14.048 20.704 14.048 33.952 0 26.512-21.488 48-48 48-13.248 0-25.248-5.376-33.936-14.064l-62.064-62.064-62.064 62.064c-8.688 8.688-20.672 14.064-33.936 14.064-26.512 0-48-21.488-48-48 0-13.248 5.376-25.248 14.064-33.936l62.048-62.064-62.064-62.064c-8.672-8.688-14.048-20.688-14.048-33.936 0-26.512 21.488-48 48-48 13.248 0 25.248 5.376 33.936 14.064l62.064 62.048 62.064-62.064c8.688-8.672 20.688-14.048 33.936-14.048 26.512 0 48 21.488 48 48 0 13.248-5.376 25.248-14.064 33.936l-62.048 62.064z" />
<glyph unicode="&#xe868;" glyph-name="document_download" d="M480 623.872h304l-351.376 320.128h-0.624v-272.016c0-26.576 21.488-48.112 48-48.112zM576 112c0 53.024 42.976 96 96 96 5.488 0 10.768-0.736 16-1.632v129.632c0 53.024 42.976 96 96 96v0 143.776h-304c-53.024 0-96 43.072-96 96.208v272.016h-256c-26.512 0-48-21.488-48-48v-832c0-26.512 21.488-48 48-48h504.256l-28.128 28.112c-17.376 17.376-28.128 41.376-28.128 67.888zM896 160c-13.248 0-25.248-5.376-33.936-14.064l-30.064-30.048v220.112c0 26.512-21.488 48-48 48s-48-21.488-48-48v-220.112l-30.064 30.064c-8.688 8.672-20.688 14.048-33.936 14.048-26.512 0-48-21.488-48-48 0-13.248 5.376-25.248 14.064-33.936l112-112c8.688-8.688 20.688-14.064 33.936-14.064s25.248 5.376 33.936 14.064l112 112c8.688 8.672 14.064 20.672 14.064 33.936 0 26.512-21.488 48-48 48z" />
<glyph unicode="&#xe869;" glyph-name="document_ok" d="M480 591.872h304l-352 320.704v-272.592c0-26.576 21.488-48.112 48-48.112zM896 192c-13.248 0-25.248-5.376-33.936-14.064l-94.064-94.048-30.064 30.064c-8.688 8.672-20.688 14.048-33.936 14.048-26.512 0-48-21.488-48-48 0-13.264 5.376-25.248 14.064-33.936l64-64c8.688-8.688 20.688-14.064 33.936-14.064s25.248 5.376 33.936 14.064l128 128c8.688 8.672 14.064 20.688 14.064 33.936 0 26.512-21.488 48-48 48zM608 80c0 53.024 42.976 96 96 96 24.528 0 46.544-9.6 63.472-24.752l16.528 16.496v376h-304c-53.024 0-96 43.072-96 96.208v272.048h-256c-26.512 0-48-21.488-48-48v-832c0-26.512 21.488-48 48-48h536.256l-28.128 28.112c-17.376 17.376-28.128 41.376-28.128 67.888z" />
<glyph unicode="&#xe86a;" glyph-name="document_remove" d="M496 591.872h304l-352 320.704v-272.592c0-26.576 21.488-48.112 48-48.112zM608 80c0 53.024 42.976 96 96 96h96v367.776h-304c-53.024 0-96 43.072-96 96.208v272.592h-144v-0.576h-112c-26.512 0-48-21.488-48-48v-832c0-26.512 21.488-48 48-48h560c-53.024 0-96 42.976-96 96zM896 128h-192c-26.512 0-48-21.488-48-48s21.488-48 48-48h192c26.512 0 48 21.488 48 48s-21.488 48-48 48z" />
<glyph unicode="&#xe86b;" glyph-name="documents" d="M512 687.984v272.016h-256c-26.512 0-48-21.488-48-48v-832c0-26.512 21.488-48 48-48h608c26.512 0 48 21.488 48 48v511.76h-304c-53.024 0-96 43.088-96 96.224zM608 639.872h304l-352 320.704v-272.592c0-26.576 21.488-48.112 48-48.112zM160 80v784c-26.512 0-48-21.488-48-48v-784c0-53.024 42.976-96 96-96h560c26.512 0 48 21.488 48 48h-560c-53.024 0-96 42.976-96 96z" />
<glyph unicode="&#xe86c;" glyph-name="document_upload" d="M480 623.872h304l-351.376 320.128h-0.624v-272.016c0-26.576 21.488-48.112 48-48.112zM576 224c0 26.512 10.752 50.512 28.112 67.888l112 112c17.376 17.36 41.376 28.112 67.888 28.112v143.776h-304c-53.024 0-96 43.072-96 96.208v272.016h-256c-26.512 0-48-21.488-48-48v-832c0-26.512 21.488-48 48-48h560v113.632c-5.232-0.896-10.512-1.632-16-1.632-53.024 0-96 42.976-96 96zM929.936 257.936l-112 112c-8.688 8.688-20.688 14.064-33.936 14.064s-25.248-5.376-33.936-14.064l-112-112c-8.688-8.688-14.064-20.688-14.064-33.936 0-26.512 21.488-48 48-48 13.248 0 25.248 5.376 33.936 14.064l30.064 30.048v-220.112c0-26.512 21.488-48 48-48s48 21.488 48 48v220.112l30.064-30.064c8.688-8.672 20.688-14.048 33.936-14.048 26.512 0 48 21.488 48 48 0 13.248-5.376 25.248-14.064 33.936z" />
<glyph unicode="&#xe86d;" glyph-name="download" d="M332.32 495.888l144-160c8.784-9.744 21.52-15.888 35.68-15.888s26.88 6.144 35.68 15.888v0l144 160c7.648 8.512 12.32 19.76 12.32 32.112 0 26.512-21.488 48-48 48-14.16 0-26.912-6.128-35.68-15.888v0l-60.32-67.024v290.912c0 26.512-21.488 48-48 48s-48-21.488-48-48v-290.912l-60.32 67.024c-8.784 9.744-21.52 15.888-35.68 15.888-26.512 0-48-21.488-48-48 0-12.352 4.672-23.6 12.32-32.112v0zM880 400c-26.512 0-48-21.488-48-48v-192h-640v192c0 26.512-21.488 48-48 48s-48-21.488-48-48v-240c0-26.512 21.488-48 48-48h367.952c0.016 0 0.032 0 0.048 0s0.032 0 0.048 0h367.952c26.512 0 48 21.488 48 48v240c0 26.512-21.488 48-48 48z" />
<glyph unicode="&#xe86e;" glyph-name="dribbble" d="M1013.6 551.072c-6.72 32.896-16.784 65.296-29.84 96.24-12.848 30.384-28.72 59.632-47.216 86.976-18.32 27.104-39.344 52.592-62.48 75.728-23.168 23.184-48.64 44.224-75.76 62.512-27.344 18.528-56.624 34.384-86.976 47.248-30.96 13.024-63.328 23.136-96.24 29.808-33.712 6.928-68.416 10.432-103.072 10.432-34.704 0-69.408-3.52-103.136-10.432-32.896-6.672-65.28-16.784-96.208-29.808-30.336-12.864-59.632-28.72-86.992-47.248-27.104-18.288-52.592-39.312-75.76-62.496-23.136-23.136-44.16-48.624-62.464-75.728-18.496-27.344-34.384-56.592-47.216-86.976-13.088-30.944-23.136-63.36-29.872-96.24-6.896-33.648-10.4-68.368-10.4-103.040 0-34.752 3.504-69.472 10.4-103.168 6.736-32.896 16.784-65.28 29.872-96.208 12.832-30.336 28.72-59.664 47.216-87.008 18.304-27.104 39.328-52.56 62.464-75.728 23.152-23.136 48.64-44.144 75.744-62.464 27.376-18.48 56.656-34.384 86.992-47.2 30.928-13.12 63.312-23.12 96.208-29.872 33.744-6.96 68.432-10.416 103.136-10.416 34.672 0 69.36 3.472 103.056 10.416 32.928 6.752 65.312 16.752 96.24 29.872 30.336 12.816 59.648 28.72 86.992 47.2 27.088 18.336 52.592 39.328 75.744 62.464 23.136 23.168 44.192 48.624 62.48 75.728 18.48 27.344 34.384 56.656 47.2 87.008 13.072 30.928 23.152 63.312 29.872 96.208 6.912 33.696 10.416 68.4 10.416 103.168 0.016 34.656-3.472 69.376-10.4 103.024zM512.016 885.28c110.704 0 211.728-41.264 288.784-109.104-1.072-1.696-63.36-96.48-228.416-158.336-74.72 137.328-156.848 246.448-163.424 255.104 33.056 8 67.52 12.336 103.056 12.336zM407.28 872.576c-0.016-0.048-0.080-0.080-0.080-0.080s-0.512-0.128-1.312-0.288c0.448 0.128 0.928 0.208 1.392 0.368zM325.44 843.488c5.808-7.808 86.672-117.44 162.368-251.952-209.968-55.792-392.176-53.6-403.728-53.392 28.432 135.44 119.408 247.728 241.36 305.344zM186.768 155.776c-69.632 77.488-112.016 179.904-112.016 292.272 0 4.656 0.208 9.216 0.368 13.792 7.696-0.16 223.776-5.056 448.912 62.304 12.544-24.512 24.512-49.44 35.504-74.32-5.808-1.616-11.52-3.36-17.248-5.216-236-76.272-355.68-288.608-355.68-288.608s0.128-0.128 0.16-0.224zM512.016 10.72c-101.408 0-194.512 34.816-268.688 92.72-0.016-0.032-0.080-0.16-0.080-0.16s-4.032 3.008-9.792 7.664c3.184-2.624 6.608-4.96 9.872-7.504 1.6 3.472 86.24 183.536 343.072 272.992 0.96 0.352 1.936 0.656 2.912 0.928 61.536-159.888 86.944-293.792 93.408-332.016-52.432-22.288-110.16-34.624-170.704-34.624zM756.336 85.312c-4.432 26.4-27.728 154.736-85.104 312.336 141.168 22.592 263.488-16.128 272.512-19.072-19.456-121.856-89.216-226.944-187.408-293.264zM644.576 466.688c-3.072 7.488-6.208 15.008-9.424 22.576-9.104 21.392-18.912 42.592-29.072 63.424 172.688 70.48 242.8 171.856 243.616 173.072 61.344-74.48 98.432-169.632 99.44-273.392-6.336 1.376-154.32 33.216-304.56 14.32z" />
<glyph unicode="&#xe86f;" glyph-name="drop" d="M505.328 898.448c0 0-313.856-403.28-313.472-571.392 0.416-181.296 149.408-327.84 319.168-327.392 169.744 0.464 322.192 147.824 321.776 329.12-0.416 173.744-327.472 569.664-327.472 569.664z" />
<glyph unicode="&#xe870;" glyph-name="dropbox" d="M512.64 328.368l-211.424-173.904-90.464 58.592v-65.68l301.888-179.424 301.824 179.44v65.696l-90.432-58.592-211.392 173.872zM0.016 386.464l301.2-194.944 210.784 174.336-303.712 185.936-208.272-165.328zM512 365.856l210.784-174.336 301.216 194.944-208.288 165.328-303.712-185.936zM301.216 912.048l-301.2-194.864 208.272-165.392 303.712 185.92-210.784 174.336zM1023.984 717.184l-301.2 194.864-210.784-174.336 303.712-185.904 208.272 165.376z" />
<glyph unicode="&#xe871;" glyph-name="eject" d="M672 288h-320c-26.512 0-48-21.488-48-48s21.488-48 48-48h320c26.512 0 48 21.488 48 48s-21.488 48-48 48zM352 336h320c26.512 0 48 21.488 48 48 0 9.344-2.672 18.064-7.296 25.44v0l-159.616 255.392c-0.064 0.080-0.096 0.16-0.16 0.256l-0.24 0.352c-8.464 13.552-23.52 22.56-40.688 22.56s-32.208-9.008-40.704-22.56v0l-0.224-0.352c-0.048-0.080-0.112-0.16-0.16-0.256l-159.616-255.392c-4.608-7.376-7.296-16.096-7.296-25.44 0-26.512 21.488-48 48-48z" />
<glyph unicode="&#xe872;" glyph-name="equalizer" d="M208 592h-96c-26.512 0-48-21.488-48-48v-192c0-26.512 21.488-48 48-48h96c26.512 0 48 21.488 48 48v192c0 26.512-21.488 48-48 48zM208 912c0 26.512-21.488 48-48 48s-48-21.488-48-48v-272h96v272zM560 912c0 26.512-21.488 48-48 48s-48-21.488-48-48v-400h96v400zM912 912c0 26.512-21.488 48-48 48s-48-21.488-48-48v-144h96v144zM112-16c0-26.512 21.488-48 48-48s48 21.488 48 48v272h-96v-272zM912 720h-96c-26.512 0-48-21.488-48-48v-192c0-26.512 21.488-48 48-48h96c26.512 0 48 21.488 48 48v192c0 26.512-21.488 48-48 48zM816-16c0-26.512 21.488-48 48-48s48 21.488 48 48v400h-96v-400zM464-16c0-26.512 21.488-48 48-48s48 21.488 48 48v144h-96v-144zM560 464h-96c-26.512 0-48-21.488-48-48v-192c0-26.512 21.488-48 48-48h96c26.512 0 48 21.488 48 48v192c0 26.512-21.488 48-48 48z" />
<glyph unicode="&#xe873;" glyph-name="facebook_1" d="M591.408 607.232c1.472 53.52-8.4 128.048 8.256 153.488 30.416 46.576 151.936 34.464 151.936 34.464s0 105.792 0 164.848c-191.712 0-254.464 8.016-320.256-58.8-58.528-59.44-60.336-176.176-65.152-294h-93.952v-161.152h95.008c-0.032-168.064 0.048-352.256 0-510.144 71.392 0 223.264 0 223.264 0v512.16c0 0 82.768 0 128.672 0 10.016 54.16 19.776 96.576 33.408 159.152l-161.184-0.016z" />
<glyph unicode="&#xe874;" glyph-name="facebook_2" d="M944.944 960.096h-865.872c-43.552 0-78.864-35.328-78.864-78.912v-869.664c0-43.6 35.312-75.648 78.864-75.648h865.872c43.536 0 78.848 32.032 78.848 75.648v869.664c-0.016 43.584-35.296 78.912-78.848 78.912zM537.84 620.816c-24.992 14.592-44.848 26.144-69.616 26.144-24.368 0-45.376-6.128-55.952-16.384-10.576-10.24-15.872-29.952-15.872-59.072v-43.056h130.368l-28.288-119.904h-102.096v-398.304h-163.664v398.32h-76.576v119.904h76.592v45.744c0 48.192 5.68 77.072 17.072 100.816 11.376 23.728 33.424 50.144 63.968 65.056s75.856 22.384 122.576 22.384c47.92 0 85.392-15.904 131.328-28.848l-29.84-112.8z" />
<glyph unicode="&#xe875;" glyph-name="fast_forward" d="M816 448c0 17.168-8.992 32.208-22.56 40.704v0l-0.336 0.224c-0.096 0.048-0.16 0.112-0.272 0.16l-255.392 159.616c-7.376 4.608-16.096 7.296-25.44 7.296-26.512 0-48-21.488-48-48v-73.392l-182.56 114.096c-7.376 4.608-16.096 7.296-25.44 7.296-26.512 0-48-21.488-48-48v-320c0-26.512 21.488-48 48-48 9.344 0 18.064 2.672 25.44 7.296v0l182.56 114.096v-73.392c0-26.512 21.488-48 48-48 9.344 0 18.064 2.672 25.44 7.296v0l255.392 159.616c0.080 0.064 0.176 0.128 0.272 0.16l0.336 0.24c13.568 8.464 22.56 23.52 22.56 40.688z" />
<glyph unicode="&#xe876;" glyph-name="first_aid" d="M976 672h-224c0 132.544-107.456 240-240 240s-240-107.456-240-240h-224c-26.512 0-48-21.488-48-48v-592c0-26.512 21.488-48 48-48h928c26.512 0 48 21.488 48 48v592c0 26.512-21.488 48-48 48zM512 816c79.536 0 144-64.464 144-144h-288c0 79.52 64.48 144 144 144zM688 288h-128v-128c0-26.512-21.488-48-48-48s-48 21.488-48 48v128h-128c-26.512 0-48 21.488-48 48s21.488 48 48 48h128v128c0 26.512 21.488 48 48 48s48-21.488 48-48v-128h128c26.512 0 48-21.488 48-48s-21.488-48-48-48z" />
<glyph unicode="&#xe877;" glyph-name="folder" d="M0 96c0-26.512 21.488-48 48-48h928c26.512 0 48 21.488 48 48v512h-1024v-512zM976 752h-592.288l-95.712 96h-240c-26.512 0-48-21.488-48-48v-144h1024v48c0 26.512-21.488 48-48 48z" />
<glyph unicode="&#xe878;" glyph-name="folder_add" d="M960 176h-48v48c0 26.512-21.488 48-48 48s-48-21.488-48-48v-48h-48c-26.512 0-48-21.488-48-48s21.488-48 48-48h48v-48c0-26.512 21.488-48 48-48s48 21.488 48 48v48h48c26.512 0 48 21.488 48 48s-21.488 48-48 48zM0 144c0-26.512 21.488-48 48-48h629.872c-3.552 10.048-5.872 20.72-5.872 32 0 53.024 42.976 96 96 96 0 53.024 42.976 96 96 96s96-42.976 96-96c24.704 0 47.008-9.6 64-24.912v456.912h-1024v-512zM976 800h-592.288l-95.712 96h-240c-26.512 0-48-21.488-48-48v-144h1024v48c0 26.512-21.488 48-48 48z" />
<glyph unicode="&#xe879;" glyph-name="folder_delete" d="M1024 224c0 26.512-21.488 48-48 48-13.248 0-25.248-5.376-33.936-14.064l-62.064-62.048-62.064 62.064c-8.688 8.672-20.688 14.048-33.936 14.048-26.512 0-48-21.488-48-48 0-13.264 5.376-25.248 14.064-33.936l62.048-62.064-62.064-62.064c-8.672-8.688-14.048-20.688-14.048-33.936 0-26.512 21.488-48 48-48 13.248 0 25.248 5.376 33.936 14.064l62.064 62.048 62.064-62.064c8.688-8.672 20.688-14.048 33.936-14.048 26.512 0 48 21.488 48 48 0 13.248-5.376 25.248-14.064 33.936l-62.048 62.064 62.064 62.064c8.672 8.688 14.048 20.672 14.048 33.936zM0 144c0-26.512 21.488-48 48-48h664.912c1.12 1.248 2.032 2.688 3.2 3.888l28.144 28.112-28.128 28.128c-17.376 17.36-28.128 41.36-28.128 67.872 0 53.024 42.976 96 96 96 26.512 0 50.512-10.752 67.888-28.112l28.112-28.144 28.112 28.128c17.376 17.376 41.376 28.128 67.888 28.128 17.568 0 33.808-5.056 48-13.312v349.312h-1024v-512zM976 800h-592.288l-95.712 96h-240c-26.512 0-48-21.488-48-48v-144h1024v48c0 26.512-21.488 48-48 48z" />
<glyph unicode="&#xe87a;" glyph-name="folder_ok" d="M976 224c-13.248 0-25.248-5.376-33.936-14.064l-94.064-94.064-30.064 30.064c-8.688 8.688-20.688 14.064-33.936 14.064-26.512 0-48-21.488-48-48 0-13.248 5.376-25.248 14.064-33.936l64-64c8.688-8.688 20.688-14.064 33.936-14.064s25.248 5.376 33.936 14.064l128 128c8.688 8.672 14.064 20.688 14.064 33.936 0 26.512-21.488 48-48 48zM976 784h-592.288l-95.712 96h-240c-26.512 0-48-21.488-48-48v-144h1024v48c0 26.512-21.488 48-48 48zM0 128c0-26.512 21.488-48 48-48h645.872c-3.552 10.048-5.872 20.72-5.872 32 0 53.024 42.976 96 96 96 24.528 0 46.656-9.472 63.632-24.608l60.496 60.496c17.36 17.36 41.36 28.112 67.872 28.112 17.6 0 33.808-5.056 48-13.312v381.312h-1024v-512z" />
<glyph unicode="&#xe87b;" glyph-name="folder_remove" d="M0 96c0-26.512 21.488-48 48-48h629.872c-3.552 10.048-5.872 20.72-5.872 32 0 53.024 42.976 96 96 96h192c24.704 0 47.008-9.6 64-24.912v456.912h-1024v-512zM960 128h-192c-26.512 0-48-21.488-48-48s21.488-48 48-48h192c26.512 0 48 21.488 48 48s-21.488 48-48 48zM976 752h-592.288l-95.712 96h-240c-26.512 0-48-21.488-48-48v-144h1024v48c0 26.512-21.488 48-48 48z" />
<glyph unicode="&#xe87c;" glyph-name="followers" d="M544 112c0 26.512 10.752 50.512 28.112 67.872l112 112 0.272-0.288c6.064 6 12.896 11.232 20.352 15.504-63.664 27.216-80.336 36.688-80.336 36.688l-0.88 94.304c0 0 37.184 28.224 48.784 117.392 23.216-6.72 31.072 27.216 32.336 48.896 1.376 20.944 13.728 86.224-14.672 80.4 5.808 43.584 10.368 82.992 8.32 103.856-7.104 73.216-57.728 149.68-185.52 155.264-108.64-5.584-179.168-82.096-186.288-155.328-2.048-20.864 2.128-60.224 7.936-103.888-28.384 5.904-16.16-59.504-14.912-80.432 1.376-21.68 9.056-55.712 32.32-48.992 11.552-89.184 48.736-117.632 48.736-117.632l-0.928-94.8c0 0-23.52-14.352-122.8-55.456-99.28-41.184-68.144-8.528-149.024-48.752-127.808-63.6-127.808-238.496-127.808-238.496h0.032c-0.016-0.032-0.032-0.080-0.032-0.112 0-26.512 21.488-48 48-48h616.256l-92.128 92.128c-17.376 17.36-28.128 41.36-28.128 67.872zM846.368 208h93.248c-12.624 11.6-26.592 22.256-43.408 30.608-29.664 14.768-44.24 19.936-55.712 22.64 4.832-11.44 7.504-24.032 7.504-37.248 0-5.488-0.736-10.768-1.632-16zM755.888 64h220.112c26.512 0 48 21.488 48 48s-21.488 48-48 48h-220.112l30.064 30.064c8.672 8.672 14.048 20.688 14.048 33.936 0 26.512-21.488 48-48 48-13.248 0-25.248-5.376-33.936-14.064l-112-112c-8.688-8.688-14.064-20.688-14.064-33.936 0-13.264 5.376-25.248 14.064-33.936l112-112c8.688-8.688 20.688-14.064 33.936-14.064 26.512 0 48 21.488 48 48 0 13.248-5.376 25.248-14.064 33.936l-30.048 30.064zM1024.016 0.112c0 0 0 10.864-1.984 28.144-13.712-7.568-29.248-12.256-46.032-12.256h-129.664c0.912-5.216 1.664-10.512 1.664-16 0-17.6-5.056-33.824-13.312-48h141.312c26.512 0 48 21.488 48 48 0 0.048-0.016 0.080-0.016 0.112h0.032z" />
</font>
</defs>
</svg>
